//TJADB Project
TITLE:Rasen Shuukai Kidou
TITLEJA:螺旋周回軌道
SUBTITLE:--BlackY feat. Risa Yuzuki
SUBTITLEJA:BlackY feat. Risa Yuzuki
BPM:284
WAVE:Rasen Shuukai Kidou.ogg
OFFSET:-1.569
DEMOSTART:68.919

COURSE:Edit
LEVEL:10
BALLOON:7
SCOREINIT:1040
SCOREDIFF:0
#START
#MEASURE 7/4
4000102000201020001120102000,
400000000000100000200000100000002000000020000000200000200200200000200000100000100000,
#MEASURE 6/4
400000000100000000000000000000202020,
200020220220,
#MEASURE 8/4
3002120212201020,
1202120210221220,
1202120212201020,
100000200000000000200000100000200000000000200000100010001000100000200000100100100000200000200000,
30002011201020100010200010203000,
200000100100200000100000200000100000000000100000400000000000100010001000200000100000200000200000,
4014040401220404,
000000100100200000000000200020002000100000100000100000100000100000200200100000100000000000000000,
3000000200220220,
000000202020200000200200000200200200100100200200,
1001002200220021,
100200200200202020200200100200200100200200100100,
30002011201020100010200010203000,
200000100100200000100000200000100000000000100000400000000000100010001000200000200000100000100000,
3011202012212010,
2120102210211130,
0011400010010010,
0100100122212211,
30002011201020100010200010203000,
20112010201000102220101022102020,
#MEASURE 7/4
30012010002000,
3000001000003000000022201010,
30012010002001,
4000104000112020101110102020,
300000000100200000200000200100202020200100,
30120110302021,
#MEASURE 6/4
302120101201,
300000200000300022202010,
#MEASURE 7/4
10012021212021,
3000201020104000201022201010,
30212021222211,
100020002000200200100200202020100100200200,
300000200100100100200100100100200100202020,
100200200100200200100100200000101010200200,
#MEASURE 6/4
400101221120,
400000100200000100202020101010201010,
201021012010,
400000100000200100000100200100202020,
100100000100000100000100101010200100,
#MEASURE 8/4
100040004000400040004000700000000000000800200200,
#GOGOSTART
30000020100020102020001020102210,
100000000000000000200000100000000000200000100000200000200200100000200000100010001000200000200000,
10000020100020102020001020102210,
100000000000000000200000100000000000200000100000200000100100200000000000200020002000100000100000,
30000020100020102020001020102210,
100000000000000000200000100000000000200000100000200000200200100000200000100010001000200000200000,
1021210101202101,
20202220202210104000004000004000,
#GOGOEND
00000010
#GOGOSTART
400020102020001020102210,
100000000000000000200000100000000000200000100000200000200200100000200000100010001000200000200000,
10000020100020102020001020102210,
101010101010201020112020,
3020202110102010,
3021202112102101,
3020202110102010,
100000200000200000100000200000100000200000100000200020002000100000100000100100100000200000100000,
3020102210220101,
4010122101010021,
400000000100000000100000000100000000200020001000,
300000000000200000000002200000100002200200100000,
#GOGOEND
#MEASURE 7/4
3300000,
200000000000200000000200000000202020200000,
300300000000000000011,
100000100100100000100100100100101010200200,
30302101202211,
30302101202210,
222111211222111222111,
#MEASURE 13/8
200000000000100000200000000000100100200000000000100000200020002000200000200000,
#MEASURE 15/8
100000000000100000200000000000200000100000000000200000100000100100200000000000200020002000,
#MEASURE 8/4
#GOGOSTART
10000010001020101010201010112010,
10102010202010101120101020112020,
100000000000100000200000200020002000100000000000200000100000100000100000200200100000200000100000,
202020100000100000200100202020100000200200200300,
00112010101020102010201120200030,
000000100100200000200000100000200000200000100000200020002000100000100000100000100000200000000000,
20101020101020111020111020111010,
202020200200100100201010202020101010201010200200,
102020200300000300000300000200200300000300000300,
000022100000
#GOGOEND
000000000000,
#END

COURSE:Oni
LEVEL:9
BALLOON:5,53,13
SCOREINIT:1470
SCOREDIFF:0
#START
#SCROLL 0.5
#MEASURE 7/4
30010101011020,
300000000000000000100000000000001000000010000000000000100000000000100000200000000000,
#MEASURE 6/4
400000100000000000000022,
2,
#MEASURE 8/4
1011210101211020,
1011210100121120,
1011210101211020,
1011210100121122,
1011210101211020,
1011210100121220,
4004040400220404,
0030000000002200,
1020202020020020,
1020202200202020,
1020202020220020,
1020202210201022,
1011210101211020,
1011210100121120,
1020202020220020,
1020202200202020,
1020202020220020,
1020202210201022,
1011210101211020,
1011210100121122,
#MEASURE 7/4
10012010212010,
500000000000000000000000000000000000000000000008000000000000000000000000200000200000,
10012010212210,
500000000000000000000000000000000000000000000008000000000000000000000000100000000000,
10012010212010,
12212210102211,
#MEASURE 6/4
100100112020,
100120102212,
#MEASURE 7/4
10012010212010,
500000000000000000000000000000000000000000000008000000000000000000000000200000200000,
10112012212210,
500000000000000000000000000000000000000000000008000000000000000000000000100000000000,
10112010212010,
12212210102211,
#MEASURE 6/4
100100112020,
100120122122,
5,
000000000000000000000000000008000000,
110303030303,
#MEASURE 8/4
002020202020700000000800,
#GOGOSTART
1102102112021022,
1102102112021022,
1102102112021022,
1102102112202022,
1102102112021022,
1102102112021022,
1101210101202211,
500000000000000008000000400000000400000000400000,
#GOGOEND
1102
#GOGOSTART
102112021022,
1102102112021022,
1102102112021022,
111111,
3000201010112022,
1001202210012022,
1000201010112022,
1001202210221221,
1020112010221210,
2012101221010222,
1001001001002022,
1000200010002210,
#GOGOEND
#MEASURE 7/4
7,
,
,
8,
10102101012210,
10102101021120,
10102101012210,
#MEASURE 13/8
4004003003000,
#MEASURE 15/8
700000000000080,
#MEASURE 8/4
#GOGOSTART
1001012010210120,
1022112211212122,
1201201022012010,
2011112211222111,
0021102020221021,
0002212020022210,
1021021021021122,
2022121121121120,
1003030300110303,
#GOGOEND
#END

COURSE:Hard
LEVEL:7
BALLOON:35,4,44,11
SCOREINIT:2260
SCOREDIFF:0
#START
#SCROLL 0.5
#MEASURE 7/4
9,
0000090,
#MEASURE 6/4
8,
,
#MEASURE 8/4
1011010100202020,
1011010100102020,
1011010100202020,
1011010100102020,
1011010100202020,
1011010100102020,
4004040400220404,
0030000000002200,
1020202020020020,
1020202200202020,
1020202020220020,
12121122,
1011010100202020,
1011010100102020,
1020202020220020,
1020202200202020,
1020202020220020,
12121122,
1011010100202020,
1011010100102020,
#MEASURE 7/4
10012000101020,
500000000000000000000000000000000000000000000008000000000000000000000000100000000000,
10012000101020,
500000000000000000000000000000000000000000000008000000000000000000000000100000000000,
10012000101020,
1121121,
#MEASURE 6/4
100122,
102200,
#MEASURE 7/4
10012000101020,
500000000000000000000000000000000000000000000008000000000000000000000000100000000000,
1212112,
500000000000000000000000000000000000000000000008000000000000000000000000100000000000,
1212112,
1121121,
#MEASURE 6/4
100122,
300404,
6,
000000000000000000000000000008000000,
110303030303,
#MEASURE 8/4
002020202020700000000800,
#GOGOSTART
1001101010011010,
2002202010000010,
2002202020022020,
1001101020002020,
1001101010011010,
2002202010000011,
1005000000000000,
000000000000000000000000000008000000000000200000,
#GOGOEND
1001
#GOGOSTART
101010011010,
2002202010000010,
2002202020022020,
111111,
30000122,
1001201010012050,
000000000000000000000008000000100000200000200000,
1001201010202050,
000000000000000000000008000000100000200000200000,
1001201010012050,
000000000000000000000000000008000000000000100100,
1344,
#GOGOEND
#MEASURE 7/4
7,
,
,
8,
10101102022020,
10101102022020,
10101102022020,
#MEASURE 13/8
4004003003000,
#MEASURE 15/8
700000000000080,
#MEASURE 8/4
#GOGOSTART
1001011020020220,
0020222022202220,
1122,
200000500000000000000000000000000000008000000200,
0001002020220020,
0002202020020020,
1001001001001010,
2022202020020020,
3003030300110303,
#GOGOEND
#END

COURSE:Normal
LEVEL:6
BALLOON:23,30,29
SCOREINIT:3910
SCOREDIFF:0
#START
#SCROLL 0.5
#MEASURE 7/4
9,
0000090,
#MEASURE 6/4
8,
,
#MEASURE 8/4
1001010100100000,
1001010100100000,
1001010100100000,
2002020200200000,
1001010100100000,
1001010100100000,
6,
000000000000000000000000000000000008000000000000,
11,
1111,
11,
10101011,
1001010100100000,
2002020200200000,
11,
1111,
11,
10101011,
1001010100100000,
2002020200200000,
#MEASURE 7/4
1010112,
500000000000000000000000000000000000000000000008000000000000000000000000100000000000,
1010222,
500000000000000000000000000000000000000000000008000000000000000000000000100000000000,
1010112,
2020201,
#MEASURE 6/4
100111,
102200,
#MEASURE 7/4
1010112,
500000000000000000000000000000000000000000000008000000000000000000000000100000000000,
1010222,
500000000000000000000000000000000000000000000008000000000000000000000000100000000000,
1010112,
2020201,
#MEASURE 6/4
100111,
300404,
7,
,
,
#MEASURE 8/4
00000008,
#GOGOSTART
1001001010010010,
2002002020000000,
2002002020020020,
1001001010000000,
1001001010010010,
2002002020000050,
,
000000000000000000000000000008000000000000000000,
#GOGOEND
1001
#GOGOSTART
001010010010,
2002002020000000,
2002002020020020,
33,
30000111,
1002002020020050,
000000000000000008000000000000100000100000100000,
1002002020500000,
000000000000000008000000000000100000100000100000,
1002002020020050,
000000000000000000000000000008000000000000000000,
3344,
#GOGOEND
#MEASURE 7/4
7,
,
,
8,
10001001001010,
10001002002020,
10001001001010,
#MEASURE 13/8
4004003003000,
#MEASURE 15/8
,
#MEASURE 8/4
#GOGOSTART
1001001020020020,
000000500000000000000000000000000008000000000000,
1122,
2000000000000005,
,
000000000000000000000000000000000008000000000000,
1001001001001000,
2020202020020020,
6,
000000000008000000000000
#GOGOEND
000000000000000000000000,
#END

COURSE:Easy
LEVEL:4
BALLOON:18,25,24
SCOREINIT:6660
SCOREDIFF:0
#START
#SCROLL 0.5
#MEASURE 7/4
9,
0000090,
#MEASURE 6/4
8,
,
#MEASURE 8/4
1001000000100000,
1001000000100000,
1001000000100000,
1001000000200000,
1001000000100000,
1001000000100000,
6,
000000000000000000000000000008000000000000000000,
1,
11,
1,
11,
1001000000100000,
1001000000200000,
1,
11,
1,
11,
1001000000100000,
1001000000200000,
#MEASURE 7/4
1010101,
500000000000000000000000000000000000000000000008000000000000000000000000000000000000,
1010202,
500000000000000000000000000000000000000000000008000000000000000000000000000000000000,
1010202,
5,
#MEASURE 6/4
000000000000000000000008000000000000000000000000000000000000000000000000,
11,
#MEASURE 7/4
1010101,
500000000000000000000000000000000000000000000008000000000000000000000000000000000000,
1005000,
000000000000000000000000000000000000000000000008000000000000000000000000000000000000,
1010202,
5,
#MEASURE 6/4
000000000008000000000000000000000000000000000000000000000000000000000000,
33,
7,
,
,
#MEASURE 8/4
00000008,
#GOGOSTART
1001000010010000,
1001000010000000,
1001000010010000,
2002000020000000,
1001000010010000,
1001000010000050,
,
000000000000000000000000000008000000000000000000,
#GOGOEND
1001
#GOGOSTART
000010010000,
1001000010000000,
1001000010010000,
33,
3,
1001000010010050,
000000000000000008000000000000000000000000000000,
1001000010500000,
000000000000000008000000000000000000000000000000,
1001000010010050,
000000000000000000000000000008000000000000000000,
3344,
#GOGOEND
#MEASURE 7/4
7,
,
,
8,
10001001000000,
10001001000000,
10001001000000,
#MEASURE 13/8
4004003003000,
#MEASURE 15/8
,
#MEASURE 8/4
#GOGOSTART
1000000010010010,
000000500000000000000000000008000000000000000000,
1122,
2000000000000000,
,
000000500000000000000000000008000000000000000000,
1001001001001000,
2220,
6,
000000000008000000000000
#GOGOEND
000000000000000000000000,
#END
