//TJADB Project
TITLE:Chikochiko
TITLEJA:千鼓千鼓
SUBTITLE:--Katsuro Tajima -Tico-Tico no Fubá Rendition-
SUBTITLEJA:
BPM:120
WAVE:Chikochiko.ogg
OFFSET:-2.377
DEMOSTART:18.002 //Shinuchi:
4390/2810/1720/1210

COURSE:Oni
LEVEL:9
BALLOON:5,5,5,5,5,5
SCOREINIT:400,1290
SCOREDIFF:98
#START
1020102010201210,
1022102210212000,
2022020220203000,
2022020220203000,
2102020221020020,
2122122210030000,
1202001012020010,
2111122110030101, //8
2112010121120101,
2122122210010101,
2102010121020101,
2122221110030000,
1112222220040000,
1122222220040000,
1011210110210122,
1011210112211110, //16
1112222220040000,
1122222220040000,
2112211221122211,
1122211110030000,
1000200021011000,
1000200021011040,
100000100000102010102010200100100200100100000100,
201020100100200200101020100100100200100000400000, //24
22122121,
21221122,
1122212211012101,
202010202010202010202010100200100200100000000000,
#MEASURE 6/4
#BPMCHANGE 116.63
78
#BPMCHANGE 120.71
#SCROLL 1.25
78
#BPMCHANGE 122.83
#SCROLL 1.5
78, //29
#MEASURE 4/4
#BPMCHANGE 120
#SCROLL 1
#GOGOSTART
1011120110201102,
1011120110211120,
1011120210201102,
1011120110211220,
1021120110211102,
100100200100201020100100100100200200200000000000,
1122111222222111,
22111122
#SCROLL 1.5
30404000, //37
#GOGOEND
#SCROLL 1
0,
1112222111121111,
#MEASURE 6/4
78
#SCROLL 0.75
78
#SCROLL 0.5
78, //40
#MEASURE 4/4
#BPMCHANGE 155
#SCROLL 1
#GOGOSTART
2102021021020212,
2122122210030212,
1202021112020211,
2111122110030101,
2112010121120101,
2122122210010101,
2202010112020101,
2122221110030000, //48
1112222220040000,
1122222220040000,
1011210111210122,
1011210112211110,
1112222220040000,
1122222220040000,
2112211221122211,
1122211110030000, //56
1021012210210120,
1022102210210222,
1021012210210120,
1022102210210211,
2012021120120121,
200200100100201020100100200100200200200000000000,
1111222211222111,
2222111111121111,
#MEASURE 6/4
111122221122211122221112, //65
#GOGOEND
#MEASURE 4/4
1002002000102000,
1002002000102000,
1002202221012000,
1002002020001112,
#GOGOSTART
2102101021020211,
11122122
#SCROLL 1.5
30404000,
#GOGOEND
#SCROLL 1
0,
0, //73
#END

COURSE:Hard
LEVEL:8
BALLOON:4,4,4,4,4,4
SCOREINIT:470,1870
SCOREDIFF:118
#START
1000100010201110,
1000100010111000,
2022020220203000,
2022020220203000,
2202001022020010,
1020201110030000,
2202001022020010,
2020202220030000, //8
1012010010120100,
1020101110030000,
1102001011020010,
2020101110030000,
1010102220040000,
1010202220040000,
1010201010010000,
1010201010010000, //16
1010102220040000,
1010202220040000,
11112121,
1111111010030000,
1202,
1000200022011000,
1000200022011100,
12221110, //24
11222121,
21212221,
1101110122022202,
11113330,
#MEASURE 6/4
#BPMCHANGE 116.63
78
#BPMCHANGE 120.71
#SCROLL 1.25
78
#BPMCHANGE 122.83
#SCROLL 1.5
78, //29
#MEASURE 4/4
#BPMCHANGE 120
#SCROLL 1
#GOGOSTART
1011020110201102,
1011020110201000,
1011020110201102,
1011020110201000,
1011020110201100,
1110222010111000,
1110111022202220,
22201110
#SCROLL 1.25
30303000, //37
#GOGOEND
#SCROLL 1
0,
1211,
#MEASURE 6/4
78
#SCROLL 0.75
78
#SCROLL 0.5
78, //40
#MEASURE 4/4
#BPMCHANGE 155
#SCROLL 1
#GOGOSTART
2202001022020010,
1020201110030000,
2202001022020010,
2020202220030000,
1012001010120010,
1020101110010000,
1102001011020010,
2020101110030000, //48
1010102220040000,
1010202220040000,
1010201010110000,
1010201010110000,
1010102220040000,
1010202220040000,
11112121,
1110111010030000, //56
1001002010110120,
1000100010010120,
1001002010110120,
1000100010210120,
2002001020020010,
1111111022222000,
1111111022222220,
1111111011111110,
#MEASURE 6/4
111111102222222011111110, //65
#GOGOEND
#MEASURE 4/4
500000000000000000000000000008000000000000000000,
1001001000102000,
1001001010012000,
1001001020001000, //69
#GOGOSTART
1101102011010110,
11111110
#SCROLL 1.25
30303000,
#GOGOEND
#SCROLL 1
0,
0, //73
#END

COURSE:Normal
LEVEL:6
BALLOON:4,4,3,3
SCOREINIT:550,3080
SCOREDIFF:150
#START
10101210,
10101110,
2002002000203000,
2002002000203000,
2002000020020000,
11111000,
2002000020020000,
22222000, //8
1001000010010000,
11111000,
1001000010010000,
11111000,
1010102020040000,
1010202020040000,
1000100010020000,
1000100010020000, //16
1010102020040000,
1010202020040000,
11112222,
1010101010030000,
1202,
1202,
1202,
1202, //24
1122,
2211,
1122,
11113330,
#MEASURE 6/4
#BPMCHANGE 116.63
500000000008000000000000
#BPMCHANGE 120.71
#SCROLL 1.25
500000000008000000000000
#BPMCHANGE 122.83
#SCROLL 1.5
500000000008000000000000, //29
#MEASURE 4/4
#BPMCHANGE 120
#SCROLL 1
#GOGOSTART
2002000020020000,
10107008,
2002000020020000,
10107008,
2002000020020000,
20201110,
11112220,
11113330, //37
#GOGOEND
0,
1211,
#MEASURE 6/4
500000000008000000000000
#SCROLL 0.75
500000000008000000000000
#SCROLL 0.5
500000000008000000000000, //40
#MEASURE 4/4
#BPMCHANGE 155
#SCROLL 1
#GOGOSTART
2002000020020000,
11111000,
2002000020020000,
22222000,
1001000010010000,
11111000,
1001000010010000,
11111000, //48
1010102020040000,
1010202020040000,
1000100010020000,
1000100010020000,
1010102020040000,
1010202020040000,
11112222,
1010101010030000, //56
2002000020020000,
100000100000100000100000700000000000000008000000,
2002000020020000,
100000100000100000100000700000000000000008000000,
1002000010020000,
11112220,
11112220,
11111110,
#MEASURE 6/4
111122201111, //65
#GOGOEND
#MEASURE 4/4
500000000000000000000000000008000000000000000000,
1001001000002000,
1012,
1001001010000000, //69
#GOGOSTART
33,
10103330,
#GOGOEND
0,
0, //73
#END

COURSE:Easy
LEVEL:4
BALLOON:
SCOREINIT:470,4750
SCOREDIFF:150
#START
1111,
10101110,
2023,
2023,
22,
2220,
22,
2220, //8
11,
1110,
11,
1110,
1120,
1120,
1110,
1110, //16
1120,
1120,
1122,
1110,
0202,
0202,
0212,
0202, //24
1111,
2211,
1122,
10103330,
#MEASURE 6/4
#BPMCHANGE 116.63
500000000008000000000000
#BPMCHANGE 120.71
#SCROLL 1.25
500000000008000000000000
#BPMCHANGE 122.83
#SCROLL 1.5
500000000008000000000000, //29
#MEASURE 4/4
#BPMCHANGE 120
#SCROLL 1
#GOGOSTART
1110,
1130,
1110,
1130,
1110,
1122,
10101110,
10103330, //37
#GOGOEND
0,
11,
#MEASURE 6/4
500000000008000000000000
#SCROLL 0.75
500000000008000000000000
#SCROLL 0.5
500000000008000000000000, //40
#MEASURE 4/4
#BPMCHANGE 155
#SCROLL 1
#GOGOSTART
22,
2220,
22,
2220,
11,
1110,
11,
1110, //48
1120,
1120,
1110,
1110,
1120,
1120,
1122,
1110, //56
11,
1130,
11,
1130,
11,
1122,
10101110,
10101110,
#MEASURE 6/4
101011101110, //65
#GOGOEND
#MEASURE 4/4
500000000000000000000000000008000000000000000000,
1012,
12,
11, //69
#GOGOSTART
33,
10103330,
#GOGOEND
0,
0, //73
#END
