//TJADB Project
TITLE:Kousui
TITLEJA:香水
SUBTITLE:--Eito
BPM:122
WAVE:Kousui.ogg
OFFSET:-2.122
DEMOSTART:64.328

COURSE:Oni
LEVEL:6
BALLOON:10,9,10,9,23
SCOREINIT:810
SCOREDIFF:218
#START
11210121,
0010201220101020,
11210121,
01210220,
11210122,
33430112,
11210127,
00008112,
11210121,
1010201220101020,
11211122,
11210122,
11210122,
11210122,
11211122,
70008122,
11210122,
1010201220101020,
1010201110102010,
11210122,
11210121,
1010201110101020,
1010201110102070,
00008122,
1110202010102010,
1010201220101020,
1210202010102010,
11210112,
1110202010102020,
1110202010101020,
1110202010102020,
70008122,
#GOGOSTART
1210201011102010,
3030301220101020,
1210201012102010,
33330222,
1210221012102010,
33030122,
6,
000008000000000000000000000000100000200000200000,
1210201012102010,
33330112,
1210201011102010,
33330112,
1110221011102000,
33430303,
7,
0800,
#GOGOEND
#END

COURSE:Hard
LEVEL:3
BALLOON:8,7,8,7,18
SCOREINIT:780
SCOREDIFF:223
#START
11010121,
01022010,
11010121,
02020110,
11010120,
33030110,
11010127,
00008110,
10210120,
10210110,
10211020,
10210110,
10210120,
10210110,
10211022,
70008112,
10210122,
10210112,
10211022,
10210112,
10210122,
10210112,
10211027,
00008110,
10221022,
11022010,
10221121,
12020110,
5,
000000000000000000000008000000000000000000000000,
10221022,
70008220,
#GOGOSTART
10211122,
33330220,
10211022,
33330220,
10211022,
33030220,
6,
000008000000000000000000000000200000200000000000,
10211022,
33330220,
10211122,
33330220,
11211120,
33430303,
9,
0800,
#GOGOEND
,
,
,
#END

COURSE:1
LEVEL:2
BALLOON:6,5,6,5,12
SCOREINIT:1110
SCOREDIFF:540
#START
10000001,
02,
10000001,
02020000,
1,
33030000,
10000007,
08,
1200,
1200,
1212,
1100,
1200,
1100,
1212,
78,
1200,
1200,
1212,
1100,
1200,
1100,
10201027,
0082,
1110,
1002,
1110,
1002,
5,
000000000000000000000008000000000000000000000000,
1110,
7082,
#GOGOSTART
1112,
3302,
1112,
3302,
1212,
33030020,
6,
000008000000000000000000000000000000200000000000,
1112,
3302,
1112,
3302,
1212,
33030000,
9,
0800,
#GOGOEND
,
,
,
#END

COURSE:0
LEVEL:1
BALLOON:5,4,5,4,9
SCOREINIT:1340
SCOREDIFF:1153
#START
1,
0,
1,
0,
1,
3,
10000007,
08,
1,
1,
11,
1,
1,
1,
11,
78,
1,
1,
22,
2,
1,
1,
20002007,
08,
11,
1,
11,
2,
5,
000000000000000000000008000000000000000000000000,
11,
78,
#GOGOSTART
11,
3300,
11,
3300,
11,
30030000,
6,
000008000000000000000000000000000000000000000000,
11,
4400,
11,
4400,
11,
30030000,
9,
0800,
#GOGOEND
,
,
,
#END
