//TJADB Project
TITLE:Go‽
TITLEJA:轟!!!
SUBTITLE:--Mizutamari Bond
BPM:178
WAVE:Go!!!.ogg
OFFSET:-1.573
DEMOSTART:46.867

COURSE:Oni
LEVEL:6
BALLOON:80
SCOREINIT:3130
SCOREDIFF:
#START
11120112,
0010102000111000,
11120112,
0020102000222000,
11120112,
0010102000111000,
30230260,
000000000000000000000008000000000000000000000000,
1000102000111000,
1000102011102000,
1000102000111000,
1000102011102000,
1000102000111000,
1000102011102000,
1000102000111000,
2220201110101010,
1000201110102000,
1010201110102000,
1000201110102000,
2220201010102220,
1000201110102000,
1010201110102000,
1000201110102000,
2220201010102220,
10220022,
00220002,
20220222,
02220002,
20220022,
00220002,
10121012,
1000102011102220,
5,
000000000000000000000008000000100100100000100000,
#GOGOSTART
1110201110102010,
0010203000222020,
1110201110102010,
0010104000111010,
1110201110102010,
0010203000222020,
1110201110102010,
000000100000200000600000000008000000200200200000,
1000201000102220,
1000201000102220,
10210121,
000000200000500000000000000008000000000000000000,
1110201110102000,
1000201110222050,
000000000000000000000000000000000000000000000008,
0000002210002270,
,
,
8,
#GOGOEND
#END

COURSE:Hard
LEVEL:3
BALLOON:20
SCOREINIT:6020
SCOREDIFF:
#START
10110001,
01120110,
10110002,
01120200,
10110001,
01120110,
30030060,
000000000008000000000000,
10120020,
10120020,
10150000,
000008000000000000000000,
10120020,
10120020,
10150000,
000000000008000000000000,
10210120,
10210120,
100000200500000000000008,
,
10210120,
10210120,
10250000,
000008000000000000000000,
20220022,
00220000,
20220222,
02220000,
20220022,
00220000,
10111011,
10111120,
5,
000000000008000000000000,
#GOGOSTART
10210121,
01130000,
10210121,
01140000,
10210121,
01130000,
10210121,
000100100600008000000000,
20020000,
20020002,
20220202,
000200500000008000000000,
30210120,
00201025,
000000000000000000000008,
00021017,
,
,
8,
#GOGOEND
#END

COURSE:Normal
LEVEL:2
BALLOON:6,17
SCOREINIT:14550
SCOREDIFF:
#START
10000001,
00010000,
10000001,
00010000,
10000001,
00010000,
5,
000000000008000000000000,
1,
10010000,
10050000,
000008000000000000000000,
1,
1,
10050000,
000000000008000000000000,
1,
20020000,
100000000500000000000008,
,
1,
2,
10050000,
000008000000000000000000,
20000002,
00020000,
20000002,
00020000,
20000002,
00020000,
1111,
1111,
5,
000000000008000000000000,
#GOGOSTART
10000001,
01030000,
10000001,
01030000,
10000001,
01030000,
10000001,
000100000600008000000000,
20020000,
20020000,
20020007,
0080,
3,
00101015,
000000000000000000000008,
00011017,
,
,
8,
#GOGOEND
#END

COURSE:Easy
LEVEL:2
BALLOON:5,14
SCOREINIT:24180
SCOREDIFF:
#START
10000001,
,
10000001,
,
10000001,
,
5,
000000000008000000000000,
1,
1,
10050000,
000008000000000000000000,
1,
1,
10050000,
000000000008000000000000,
1,
2,
100000000500000000000008,
,
1,
2,
10050000,
000008000000000000000000,
20000002,
,
2,
,
20000002,
,
1,
1010,
5,
000000000008000000000000,
#GOGOSTART
10000001,
00030000,
10000001,
00030000,
10000001,
00030000,
10000001,
000000000600008000000000,
2,
2,
20000007,
0080,
3,
00000005,
000000000000000000000008,
00000007,
,
,
8,
#GOGOEND
#END
