//TJADB Project
TITLE:Hand Over
TITLEJA:Hand Over (Prod. TEMPLIME)
SUBTITLE:--TEMPLIME & Sotokanda Bungei Koukou/DEN-ON-BU
SUBTITLEJA:外神田文芸高校電音部 「電音部」より
BPM:139.991
WAVE:Hand Over.ogg
OFFSET:-1.842
DEMOSTART:70.413

COURSE:Oni
LEVEL:9
BALLOON:15,15
SCOREINIT:520
SCOREDIFF:130
#START
300000100001100100200100,
000100201000100100201000,
100002200202000200111200,
000100200100222100200200,
100100201002000200100100,
000100202100200100201000,
300002200300001100300011,
000100400010001102201202,
100001200001100100201100,
000100201001100100201002,
100002202102000100111200,
000100200100222100100200,
100100201002100100200100,
002100201102200100201000,
5,
000000000000000000000000000000000008000000000000,
102000200102100100200100,
002100200102002100201100,
102000200102100100200100,
002100200102100100201200,
102000200102100100200100,
002100200102002100201100,
102000200102100100200100,
002100200100002100201000,
102000200102100100200100,
002100200102002100201100,
102000200102100100200100,
002100200102102100201200,
102000200102100100200100,
002100200102002100201100,
102100200102002100200100,
002100202100111200100100,
300000000002200100001000,
000100100102200100002100,
100000000002100100100100,
000100000102100100001000,
102100100102200100100100,
002100000102200100100100,
102200100102200100200100,
101010101010101010201202,
#GOGOSTART
102202201002102100200100,
002100201001100100201000,
102202201002102100200100,
002100201002100100201100,
102202201002002100200100,
002100201102100100201100,
300002200300001100300011,
000100400001001102201202,
102202201002102100200100,
002100201001100100201000,
102202201002102100200100,
002100201002100100201100,
102202201002102100200100,
002100201102100100201100,
5,
000000000000000000000000000000000000000008000000,
#GOGOEND
100111100202100200100200,
100200102202100111100100,
300200300202100111100202,
100200100202100200100200,
201100201100100200100200,
100200102202100111100200,
100200100202100111100202,
70000008,
100111100202100200100200,
100200102202100111100100,
300200300202100111100202,
100200100202100200100200,
201100201100100200100200,
100200102202100111100200,
100200100202100111100202,
70000008,
3,
#END

COURSE:Hard
LEVEL:4
BALLOON:12,13
SCOREINIT:570
SCOREDIFF:158
#START
30101101,
01201000,
10000012,
01202120,
11200011,
01212101,
30030030,
01400400,
10201121,
01201000,
10200112,
01212112,
11201101,
01012100,
5,
000000000000000000000000000000000008000000000000,
10211121,
01210120,
10201121,
01210120,
10200121,
01211101,
10210121,
01210120,
10211121,
01210120,
10211121,
01210121,
10201121,
01210121,
11220121,
01122111,
30000101,
01120101,
10002101,
01022001,
10102111,
01022101,
10122115,
000000000000000000000000000000000008000000000000,
#GOGOSTART
10201121,
01201120,
10201121,
01201021,
12001121,
01211101,
30030030,
01400400,
10201121,
01201120,
10201121,
01011121,
10201121,
01211101,
5,
000000000000000000000000000000000000000008000000,
#GOGOEND
11101212,
11121210,
30301112,
11121210,
21211212,
11121210,
11121212,
70000008,
11101212,
11121210,
30301112,
11121210,
21211212,
11121210,
11121212,
9,
8,
,
,
#END

COURSE:1
LEVEL:4
BALLOON:9,10
SCOREINIT:830
SCOREDIFF:253
#START
30001001,
0210,
10000002,
02,
10000001,
02,
6,
000000000000000000000000000000000008000000000000,
10001001,
0210,
10000002,
0021,
10201001,
01012100,
5,
000000000000000000000000000000000008000000000000,
10000101,
00010200,
10000101,
00010200,
10000101,
00010200,
10000101,
00020000,
10000201,
00010200,
10000201,
00010200,
10000201,
00010200,
10000201,
00020000,
40000101,
00020000,
20001101,
02,
20200111,
01022200,
10002005,
000000000000000000000000000000000008000000000000,
#GOGOSTART
10201101,
01101000,
10201101,
01101000,
10000111,
01012100,
6,
000000000000000000000000000000000008000000000000,
10201101,
01101000,
10201101,
01010101,
10001101,
01012100,
5,
000000000000000000000000000000000008000000000000,
#GOGOEND
1212,
10101110,
30301110,
11101010,
2212,
10101110,
11101110,
70000008,
1212,
10101110,
30301110,
11101010,
2212,
10101110,
11101110,
9,
8,
,
,
#END

COURSE:0
LEVEL:3
BALLOON:4,7
SCOREINIT:980
SCOREDIFF:513
#START
30000001,
01,
10000001,
01,
10000001,
01,
6,
000000000000000000000000000008000000000000000000,
10000001,
0110,
10000001,
01,
10001001,
01,
5,
000000000000000000000000000008000000000000000000,
10000001,
0,
10000001,
0,
10000001,
0,
10000001,
00010000,
10000001,
0,
10000001,
0,
10000001,
0,
10000001,
00010000,
40000001,
0,
20000001,
0,
20000001,
02,
10002005,
000000000000000000000000000008000000000000000000,
#GOGOSTART
10000001,
0110,
10000001,
0110,
10000001,
01,
6,
000000000000000000000000000008000000000000000000,
10000001,
0110,
10000001,
00010000,
10000001,
00010000,
5,
000000000000000000000000000008000000000000000000,
#GOGOEND
1110,
11,
3310,
11,
2202,
11,
1110,
70000800,
1110,
11,
3310,
11,
2202,
11,
1111,
9,
8,
,
,
#END
