//TJADB Project
TITLE:Hyper Bass
TITLEJA:Hyper Bass (feat. Yunomi)
SUBTITLE:--Jingumae Sando Gakuen feat. Yunomi/DEN-ON-BU
SUBTITLEJA:神宮前参道學園電音部 「電音部」より
BPM:180
WAVE:Hyper Bass.ogg
OFFSET:-1.502
DEMOSTART:97.667

COURSE:3
LEVEL:9
BALLOON:4,8
SCOREINIT:390
SCOREDIFF:95
#START
#MEASURE 1/8
1,
#MEASURE 4/4
1020221020102210,
2010102022200010,
1120201020102010,
1020112020200010,
1120201020102210,
2010112020200030,
0000201022202210,
1120222022100000,
1010221020102010,
2210201020102000,
1120221022102022,
100100200000200000100000200000100000400000202020,
21012121,
200100200222200100222200,
1120111022102010,
2010112010202000,
111202111222,
11212000,
111222111222,
100100200100200000000020,
111222111222,
111201200222,
111222111222,
1010201020201122,
1010221120102211,
2010221020102000,
1010221120102211,
2010221020102000,
1020221120102211,
2010221020102000,
1020221120102210,
0002,
2000000022222000,
2222100020002000,
2222100020002000,
2222100022220000,
2000000022222000,
2222100020002000,
2222100020002000,
2222100022222000,
2022202022201020,
2012102022201020,
1022201022201022,
2011100202201000,
1022201022201022,
2012102022201022,
1022201022201022,
20127080,
100000000000202020202020200000000000100100100000,
1020201022201120,
2210202022201020,
100200200100202020101010,
2000000020002220,
1120201022201120,
2210112022101020,
1020221011201120,
2002200110022001,
1000202010002001,
2002200110022001,
10221021,
1110201010102210,
1010202011102210,
1110201011102010,
1110212010000012,
#GOGOSTART
1022102011201022,
1022102011202000,
1022102011201022,
1022102011202000,
1022102211201022,
1022102011201122,
1022102211221020,
#GOGOEND
78,
#GOGOSTART
3001101010011010,
2002202020022020,
1001101010011010,
#GOGOEND
222111200100,
#GOGOSTART
3001101010011010,
2002202020022020,
1001101010011010,
#GOGOEND
1011201020102000,
#GOGOSTART
3021102012211010,
2012201021122020,
1021102012211010,
#GOGOEND
2210221020102000,
#GOGOSTART
3021102012211010,
2012201021122020,
1021102012211010,
#GOGOEND
202020200000101010100000200000100100200000000000,
1022102010201020,
1022102010002020,
1022102010201020,
1022102010202020,
1022102011201020,
1022102011202022,
1022102011201022,
12122000,
#END

COURSE:Hard
LEVEL:5
BALLOON:16,6
SCOREINIT:500
SCOREDIFF:128
#START
#MEASURE 1/8
1,
#MEASURE 4/4
12210201,
11022201,
12210201,
12022201,
10210201,
11022203,
00212201,
12022200,
11011201,
01011200,
12011201,
01011200,
02011201,
01011200,
12011221,
01011220,
1222,
11101000,
1222,
11101000,
1222,
111100100000,
1222,
500000000000000000000008000000000000000000000000,
11202120,
21221020,
11202110,
21221010,
11202120,
21222010,
11202110,
0002,
2022,
2022,
2022,
2,
2022,
2022,
2022,
2,
10221022,
10221022,
10221022,
12121210,
10221022,
10221022,
7,
08,
10202011,
10202011,
10202012,
1220,
22,
10202011,
20202012,
1220,
1212,
10221020,
1212,
10221020,
10201021,
10221020,
10201021,
10221000,
#GOGOSTART
12121010,
1022202010002000,
12121010,
1022202010002000,
1011102010001000,
1022202010001000,
1011101022202020,
#GOGOEND
78,
#GOGOSTART
30111011,
20222022,
10111011,
#GOGOEND
2120,
#GOGOSTART
30111011,
20222022,
10111011,
#GOGOEND
1210,
#GOGOSTART
30121011,
20212022,
10121011,
#GOGOEND
2120,
#GOGOSTART
30121011,
20212022,
10121011,
#GOGOEND
1210,
12121010,
12221020,
12121010,
12221020,
1011102010001000,
1022202010001000,
1011101022202020,
#MEASURE 16/4
12122000000000000000000000000000,
#END

COURSE:1
LEVEL:2
BALLOON:14,4
SCOREINIT:570
SCOREDIFF:170
#START
#MEASURE 1/8
1,
#MEASURE 4/4
00000001,
00020001,
00000001,
00020001,
00000001,
00020003,
00000001,
00020001,
00010001,
01010001,
00010001,
01010050,
000008000000000000100000000000000000000000100000,
01010001,
00010001,
01010000,
12,
1110,
12,
1110,
12,
1110,
12,
500000000000000000000008000000000000000000000000,
1222,
21,
1221,
21,
1222,
21,
1221,
0,
22,
2022,
2022,
2,
22,
2022,
2022,
2,
11,
11,
11,
2222,
11,
11,
7,
08,
12,
1221,
12,
1220,
22,
1221,
22,
1220,
11,
1210,
11,
1210,
11,
1212,
11,
1210,
#GOGOSTART
1110,
1210,
1110,
1210,
1112,
1211,
1112,
#GOGOEND
78,
#GOGOSTART
3011,
2022,
1011,
#GOGOEND
2120,
#GOGOSTART
3011,
2022,
1011,
#GOGOEND
1210,
#GOGOSTART
3022,
1022,
1022,
#GOGOEND
2120,
#GOGOSTART
3022,
1022,
1022,
#GOGOEND
1210,
1121,
1110,
1121,
1110,
1122,
1210,
1122,
#MEASURE 16/4
1220000000000000,
#END

COURSE:0
LEVEL:2
BALLOON:7,7,7,7,9,3
SCOREINIT:570
SCOREDIFF:175
#START
#MEASURE 1/8
1,
#MEASURE 4/4
00000001,
00000001,
00000001,
00000001,
00000001,
00000003,
00000001,
00000001,
00010001,
00020001,
00010001,
00020050,
000008000000000000000000000000000000000000100000,
00020001,
00010001,
00020000,
7,
08001000,
7,
08001000,
7,
08001000,
7,
08001000,
22,
21,
22,
21,
22,
21,
22,
0,
2,
22,
22,
2,
2,
22,
22,
2,
1,
1,
11,
1110,
11,
11,
7,
08,
12,
1110,
12,
1110,
22,
1110,
22,
1110,
1,
12,
1,
12,
1,
12,
1,
12,
#GOGOSTART
11,
1110,
11,
1110,
1110,
1110,
1111,
#GOGOEND
78,
#GOGOSTART
31,
11,
11,
#GOGOEND
1110,
#GOGOSTART
31,
11,
11,
#GOGOEND
1110,
#GOGOSTART
32,
12,
12,
#GOGOEND
1110,
#GOGOSTART
32,
12,
12,
#GOGOEND
1110,
11,
1110,
11,
1110,
12,
1110,
12,
#MEASURE 16/4
2220000000000000,
#END
