//TJADB Project
TITLE:Itadaki Babel
TITLEJA:いただきバベル (Prod. ケンモチヒデフミ)
SUBTITLE:--Kenmochi Hidefumi feat. Akina/DEN-ON-BU
SUBTITLEJA:黒鉄たま(CV:秋奈) 「電音部」より
BPM:142
WAVE:Itadaki Babel.ogg
OFFSET:-1.814
DEMOSTART:48.356

COURSE:Oni
LEVEL:8
SCOREINIT:630
SCOREDIFF:173
#START
10002011,
02112011,
20221020,
0020121020002020,
10002011,
02112011,
20221020,
0020121020002020,
10012010,
1100110020000000,
10012010,
2200220010002000,
11212020,
12112020,
21112020,
21212040,
1000102010221020,
1000102010221220,
1000102010221020,
1212121210000000,
1022102210221022,
1010202010201222,
1122102210221022,
1010202010221222,
1122102210221022,
1010202210201222,
1020201210210050,
000000000000000000000008000000200000000200000000,
3003003000200200,
3003003000200200,
3003003020202020,
3003003000202222,
1003003000202020,
3003003000202020,
3003003000400400,
600000000000000000000008000000100200100000200000,
1020102010210050,
000000000000000000000008000000100200100000200000,
100000200000100000200000100000200100000000500008,
000000500000000000000008000000100200100000200000,
1020102010210050,
000000000000000000000008000000100000200100000000,
1011221122121210,
1100110010222000,
#GOGOSTART
1201101020121020,
1202102010212010,
1201101020121020,
1212102010212010,
1201101020121020,
1202102010212010,
1201101020121020,
#GOGOEND
1212102012221222,
#GOGOSTART
1202102021012010,
2012222212021020,
1212102021012010,
#GOGOEND
2101222212222020,
#GOGOSTART
1202102021012010,
2012222212021020,
1212102021012010,
2222220122210020,
#GOGOEND
1100110011001100,
1100110010222000,
#END

COURSE:Hard
LEVEL:5
BALLOON:10,10
SCOREINIT:700
SCOREDIFF:195
#START
1021,
02112000,
1021,
02112020,
1021,
02112000,
1021,
02112020,
1021,
12112000,
1021,
21212020,
1021,
12112000,
1021,
21212040,
10221022,
10221220,
10221022,
500000000000000000000008000000000000000000000000,
12121010,
22222020,
12121010,
22222020,
12121020,
12121000,
1000000010010050,
000000000000000000000008000000200000000200000000,
3003003000200200,
3003003000200200,
3003003020202020,
3003003000202020,
3003003000202020,
3003003000202020,
3003003000400400,
600000000000000000000008000000100100100000100000,
1000000010010050,
000000000000000000000008000000100100100000100000,
100000000000000000000000100000000100000000500008,
000000500000000000000008000000100100100000100000,
1000000010010050,
000000000000000000000008000000000000000000000000,
0,
3330,
#GOGOSTART
1011101020001010,
1011101020001010,
1011101020001010,
1011101020001010,
1011101020001020,
1011101020001020,
1011101020001020,
#GOGOEND
1011101020000000,
#GOGOSTART
1011102010001020,
1011102010001020,
1011102010001020,
#GOGOEND
7008,
#GOGOSTART
1011102010001020,
1011102010001020,
1011102010001020,
7008,
#GOGOEND
1111,
1000100010222000,
,
,
#END

COURSE:1
LEVEL:3
BALLOON:6,6
SCOREINIT:860
SCOREDIFF:328
#START
12,
02,
12,
02,
12,
02,
12,
02,
12,
1120,
12,
2220,
12,
1120,
12,
2220,
11,
11,
11,
500000000000000000000008000000000000000000000000,
1110,
2220,
1110,
2220,
1210,
1210,
1000000010010050,
000000000000000000000008000000000000000000000000,
3003003000000000,
3003003000000000,
3003003000000000,
4004004000000000,
3003003000000000,
3003003000000000,
3003003000000000,
600000000000000000000008000000000000000000000000,
1000000010010050,
000000000000000000000008000000000000000000000000,
1000000010010050,
000000000000000000000008000000000000000000000000,
1000000010010050,
000000000000000000000008000000000000000000000000,
0,
3330,
#GOGOSTART
10101011,
1110,
10101011,
1110,
10101011,
1120,
10101011,
#GOGOEND
1120,
#GOGOSTART
10102011,
1120,
10102011,
#GOGOEND
7008,
#GOGOSTART
10102011,
1120,
10102011,
7008,
#GOGOEND
1111,
1114,
,
,
#END

COURSE:0
LEVEL:2
BALLOON:6,6
SCOREINIT:950
SCOREDIFF:645
#START
12,
0,
12,
0,
12,
0,
12,
0,
1,
1,
1,
22,
1,
1,
1,
22,
1,
11,
1,
500000000000000000000008000000000000000000000000,
1,
2,
1,
2,
11,
11,
10001005,
000000000000000000000008000000000000000000000000,
3,
3,
3,
4,
3,
3,
3,
600000000000000000000008000000000000000000000000,
10001005,
000000000000000000000008000000000000000000000000,
10001005,
000000000000000000000008000000000000000000000000,
10001005,
000000000000000000000008000000000000000000000000,
0,
3330,
#GOGOSTART
1110,
1110,
1110,
1,
1110,
1110,
1110,
#GOGOEND
1,
#GOGOSTART
1120,
1120,
1120,
#GOGOEND
7008,
#GOGOSTART
1120,
1120,
1120,
7008,
#GOGOEND
1111,
1114,
,
,
#END
