//TJADB Project
TITLE:Shining Lights
TITLEJA:Shining Lights (feat. PSYQUI)
SUBTITLE:--Kana Sukoya feat. PSYQUI/DEN-ON-BU
SUBTITLEJA:鳳凰火凛(CV: 健屋花那) 「電音部」より
BPM:170
WAVE:Shining Lights.ogg
OFFSET:-1.657
DEMOSTART:80.004

COURSE:Oni
LEVEL:9
BALLOON:8,14,6
SCOREINIT:380
SCOREDIFF:90
#START
3000000022200010,
0011201020101020,
10120201,
0011200020002000,
1000000022200010,
0011200020002000,
10201205,
000000000000000000000000000000000000000008000000,
1010201110102010,
1010201110102000,
1010201110102010,
1020201120002000,
11211121,
11211121,
1110111011101111,
2,
#GOGOSTART
1000100210101022,
1022102010201000,
2000200120102011,
2010201120121120,
1020102210102012,
1020102210221120,
1122112211221122,
#GOGOEND
1022101122201000,
300000000000202020200000202020200000100100200000,
100000111100200200200200,
202020200000100000000000200200100000000000000000,
100100222200111111100000,
300000222200100100100100,
222200100000200200200200,
202020200000100000000000200200100000000000000000,
500000000000000000000000000000000000000008000000,
300000000000202020200000202020200000100100200000,
100000111100200200200200,
202020200000100000000000200200100000000000000000,
100100222200111111100000,
300000222200100100100100,
222200100000200200200200,
202020200000100000000000200200100000000000000000,
500000000000000000000000000000000000000008000000,
3000000022200010,
0011201020101020,
10210201,
0011200020002000,
1000000022200010,
0011200020002000,
10201205,
000000000000000000000000000000000000000008000000,
1010201110102010,
1010201110102000,
1010201010112010,
1020201120002000,
11221122,
11221122,
1110111011101111,
2,
#GOGOSTART
1000100010012020,
0020101110212020,
1000102210212020,
0022101022212020,
1000100010012020,
0020101120212020,
1000102210212070,
00081010,
1000100210101022,
1022102010201000,
2000200120102011,
2010201120121120,
1020102210102012,
1020102210221120,
1122112211221122,
#GOGOEND
1022101122201000,
300000000000202020200000202020200200000200200200,
0222022202220222,
202020200000100000000000200200100000000000000000,
100100222200111111100000,
300000222200100100100100,
222200100000200200200200,
202020200000100000000000200200100000000000000000,
500000000000000000000000000000000000000008000000,
300000000000202020200000202020200000100100200000,
100000111100222200222200,
202020200000100000000000200200100000000000000000,
100100222200111111100000,
300000222200111100111100,
222200100000222200222200,
202020200000100000000000200200100000000000000000,
500000000000000000000000000000000000000008000000,
#GOGOSTART
0000201012202011,
1010201112202011,
1010201110202011,
1010201112202000,
1010201012202011,
1010201112202011,
1010201110202070,
0008,
1000201012202011,
1010201112202011,
1010201110202011,
1010201112202000,
1010201012202011,
1010222011221020,
1111222211112222,
1122112270000080,
#GOGOEND
#END

COURSE:Hard
LEVEL:6
BALLOON:16,14,16,6,14,20,10,24
SCOREINIT:520
SCOREDIFF:118
#START
30002001,
00000112,
10120201,
0,
10002001,
0122,
10201205,
000000000000000000000000000000000000000008000000,
10211120,
11201120,
10211120,
11211020,
11201120,
11211127,
0,
8,
#GOGOSTART
10101012,
12121010,
20202021,
21212020,
10101012,
12121111,
7,
#GOGOEND
8,
3220,
10102222,
20102100,
1210,
30201111,
20102222,
20102100,
500000000000000000000000000000000000000008000000,
3220,
10102222,
2000100011100000,
1210,
30201111,
20102222,
2000100011100000,
500000000000000000000000000000000000000008000000,
30002001,
00000112,
10210201,
0,
10002001,
0122,
10201205,
000000000000000000000000000000000000000008000000,
10211120,
11201120,
10211120,
11211020,
11201120,
11211127,
0,
8,
#GOGOSTART
1000100010011020,
0020100010022020,
1000100010011020,
0020100010022020,
1000100010011020,
0020100010022020,
1000100010011070,
00081010,
10101012,
12121010,
20202021,
21212020,
10101012,
12121111,
7,
#GOGOEND
8,
3270,
000000000000000000000000000000000000000000000008,
00102100,
1210,
30201111,
20102222,
20102100,
500000000000000000000000000000000000000008000000,
3220,
10102222,
2000100011100000,
1210,
30201111,
20102222,
2000100011100000,
500000000000000000000000000000000000000008000000,
#GOGOSTART
00211121,
1010201110102000,
11211121,
1010201110102000,
11211121,
1010201110102000,
11211127,
0008,
11211121,
1010201110202000,
11211121,
1010201110202000,
11211121,
11211127,
0,
000000000000000000000000000000000000080000000000,
#GOGOEND
,
#END

COURSE:1
LEVEL:2
BALLOON:9,8,9,5,8,12,7,18
SCOREINIT:500
SCOREDIFF:115
#START
30000002,
0,
10000001,
0,
10000001,
02,
10201005,
000000000000000000000000000000000008000000000000,
1110,
2220,
1112,
1110,
1111,
10101027,
0,
8,
#GOGOSTART
1112,
1110,
1112,
2210,
1112,
1112,
7,
#GOGOEND
8,
3220,
1122,
21,
1210,
3211,
2122,
21,
500000000000000000000000000000000008000000000000,
3220,
1122,
21,
1210,
3211,
2122,
21,
500000000000000000000000000000000008000000000000,
30000002,
0,
10000001,
0,
10000001,
02,
10201005,
000000000000000000000000000000000008000000000000,
1110,
2220,
1112,
1110,
1111,
10101027,
0,
8,
#GOGOSTART
10101011,
01101000,
10101011,
01102000,
10101011,
01101000,
10101017,
08,
1112,
1110,
1112,
2210,
1112,
1112,
7,
#GOGOEND
8,
3270,
000000000000000000000000000000000000000000000008,
01,
1210,
3211,
2122,
21,
500000000000000000000000000000000008000000000000,
3220,
1122,
21,
1210,
3211,
2122,
21,
500000000000000000000000000000000008000000000000,
#GOGOSTART
0111,
1120,
1211,
1120,
1112,
1212,
10102027,
0008,
1111,
1120,
1211,
1120,
1112,
10102027,
0,
000000000000000000000000000000000000080000000000,
#GOGOEND
,
#END

COURSE:0
LEVEL:2
BALLOON:9,8,9,6,8,10,6,14
SCOREINIT:500
SCOREDIFF:115
#START
3,
0,
1,
0,
10000001,
0,
10001005,
000000000000000000000000000008000000000000000000,
11,
1110,
11,
1110,
1110,
10101007,
0,
8,
#GOGOSTART
12,
1110,
12,
2220,
12,
1110,
7,
#GOGOEND
8,
32,
12,
21,
11,
31,
22,
21,
500000000000000000000000000008000000000000000000,
32,
12,
21,
11,
31,
22,
21,
500000000000000000000000000008000000000000000000,
3,
0,
1,
0,
10000001,
0,
10001005,
000000000000000000000000000008000000000000000000,
11,
1110,
11,
1110,
1110,
10101007,
0,
8,
#GOGOSTART
10101002,
01,
10101002,
02,
10101002,
01,
10101007,
00000800,
12,
1110,
12,
2220,
12,
1110,
7,
#GOGOEND
8,
37,
000000000000000000000000000000000000000000000008,
01,
11,
31,
22,
21,
500000000000000000000000000008000000000000000000,
32,
12,
21,
11,
31,
22,
21,
500000000000000000000000000008000000000000000000,
#GOGOSTART
0111,
1110,
1110,
2220,
1111,
1110,
10101007,
00000800,
1111,
1110,
1110,
2220,
1111,
10101017,
0,
000000000000000000000000000000000000080000000000,
#GOGOEND
,
#END
