//TJADB Project
TITLE:Seigaitten
TITLEJA:星河一天
SUBTITLE:--D-D-Dice
SUBTITLEJA:打打だいず
BPM:214
WAVE:Seigaitten.ogg
OFFSET:-0.404
DEMOSTART:68.797

COURSE:Oni
LEVEL:10
BALLOON:12,7,5,5,28
SCOREINIT:390
SCOREDIFF:93
#START
22220022,
22002020,
22120022,
12002020,
12210012,
21001020,
20020020,
1000000011112220,
#GOGOSTART
600000000000000000000000000008000000200000200000,
1000201110102000,
600000000000000000000000000008000000200000200000,
1000221040400030,
0011201120201020,
0011201120102000,
3004004030040040,
3004004011221212,
#GOGOEND
100122122122,
211211211211,
1111222211221121,
2222,
1000201110201020,
1022102011221020,
1000201110201020,
1022102210102020,
1000201210102020,
1000201210101111,
2211221221112110,
33040403,
000000300000600000000000000000000000000000000008,
0000001011202010,
200200100200100000000000000000004000000030000000,
3000112000202121,
1002102011211120,
1001201022122210,
2012012020120120,
100100100100100100200200500000000000000008000000,
220000000000000000200200,
2022,
20202022,
220000000000000000000000,
220000000000000000200200,
1001,
20102011,
100222111212,
100122101201,
200211202102,
100100211211,
7008,
1000100021100020,
0012201110200020,
01112121,
0012201110200020,
01122121,
0012201110201020,
0011201120122000,
3004004030040040,
1012012021121121,
2000401120102110,
200000100000200000100000100100200200101010101010,
78,
11110122,
#GOGOSTART
3011201120111020,
1011202220201020,
1022102210222020,
1010222010221020,
1011022012001122,
1011022012001122,
2000112212221210,
01222122,
3012201220111020,
1021102110101210,
1000112220001122,
2212122122102020,
#GOGOEND
31
#GOGOSTART
40
#GOGOEND
31
#GOGOSTART
40,
#GOGOEND
3011
#GOGOSTART
2011
#GOGOEND
2111
#GOGOSTART
2110,
70087008,
3333044
#GOGOEND
4,
#GOGOSTART
3012101210111020,
1012202220201020,
1021202120201120,
1022101012212030,
0012212212212030,
0012212212212030,
0012212212212050,
000000000000000008000000600000000000000008000000,
#GOGOEND
20202102,
0010201022221122,
#GOGOSTART
100000100200300030004000,
400000000200000100222222,
1011021011211210,
1012012012121220,
1022012022122120,
3000300040222022,
#GOGOEND
1012
#GOGOSTART
0210
#GOGOEND
1221
#GOGOSTART
1210,
#GOGOEND
1021
#GOGOSTART
0120
#GOGOEND
2112
#GOGOSTART
2120,
1000112222112111,
201010100000101010100000200020002000200020002000,
000000400010200010111111,
100010200010201010111111,
2111211212222222,
#GOGOEND
200200202020,
000000000222,
200000000200202020200000,
02002020,
20022020,
02202022,
7,
,
8,
#END

COURSE:Hard
LEVEL:8
BALLOON:8,6,10,6,6,16,16,20
SCOREINIT:600
SCOREDIFF:150
#START
2,
0002,
2,
0022,
2,
0012,
20020020,
14,
#GOGOSTART
600000000000000000000000000008000000200000200000,
10211020,
600000000000000000000000000008000000200000200000,
1000111040400030,
0011100020200020,
0011100020002000,
3004004030040040,
3004004030040040,
#GOGOEND
9,
,
98,
2222,
10211020,
10221122,
10211020,
11221120,
10211022,
10211020,
7008,
33040403,
000000300000600000000000000000000000000000000008,
00011221,
100100100000000040003000,
30020222,
1001001020020020,
1001001020020020,
1001002010010020,
500000000000000000000000000000000000000000000008,
00000022,
2022,
20202022,
21,
20000022,
1001,
20102011,
11,
100101101100,
200202202200,
100100222200,
7,
80002102,
00201205,
000000000000000000000008000000000000000000100000,
00102105,
000000000000000000000008000000000000000000200000,
00201202,
0122,
3004004030040040,
3004004030040040,
10400120,
10201210,
78,
11110122,
#GOGOSTART
30212111,
01221201,
10212111,
0000222000200020,
1001002001001020,
1001002001001020,
10001027,
00008022,
3000100020100011,
10102011,
10102021,
01100022,
#GOGOEND
3
#GOGOSTART
4
#GOGOEND
3
#GOGOSTART
4,
#GOGOEND
3
#GOGOSTART
4
#GOGOEND
3
#GOGOSTART
4,
7,
0000008
#GOGOEND
0,
#GOGOSTART
30212111,
01221201,
10221212,
02101023,
00000023,
00000023,
00000026,
000000000000000000000000000000000000000008000000,
#GOGOEND
20202102,
0221,
#GOGOSTART
100334,
40020122,
1001001020020020,
1001001020020020,
1001001020020020,
3342,
#GOGOEND
1
#GOGOSTART
4
#GOGOEND
1
#GOGOSTART
4,
#GOGOEND
1
#GOGOSTART
4
#GOGOEND
1
#GOGOSTART
4,
1000102220101000,
200100222222,
0900,
,
09,
#GOGOEND
8,
,
2002,
,
20020020,
02002022,
7,
,
8,
#END

COURSE:Normal
LEVEL:6
BALLOON:6,4,3,7,5,5,10,4,10,15
SCOREINIT:700
SCOREDIFF:180
#START
2,
,
2,
,
2,
0012,
20020020,
14,
#GOGOSTART
600000000000000000000000000008000000100000100000,
1012,
600000000000000000000000000008000000100000100000,
10004403,
00102202,
0122,
33,
33,
#GOGOEND
9,
,
98,
2222,
1212,
10201110,
1212,
10201110,
10222011,
10222020,
7008,
33030303,
000000000000600000000000000000000000000000000008,
0012,
100100007000,
8,
10022000,
10022000,
10011001,
500000000000000000000000000000000000000000000008,
,
2022,
2222,
21,
2,
1001,
2121,
11,
1011,
2022,
1122,
7,
80000002,
00201005,
000000000000000000000008000000000000000000100000,
00102005,
000000000000000000000008000000000000000000200000,
00201001,
0222,
33,
33,
0402,
1222,
78,
11110110,
#GOGOSTART
30101101,
00220200,
10101101,
00220200,
10020010,
10020010,
10000017,
08,
30101101,
0111,
20202002,
02200020,
#GOGOEND
3
#GOGOSTART
4
#GOGOEND
3
#GOGOSTART
4,
#GOGOEND
3
#GOGOSTART
4
#GOGOEND
3
#GOGOSTART
4,
7,
0000008
#GOGOEND
0,
#GOGOSTART
30101101,
00220200,
10101102,
00101013,
00000013,
00000013,
00000016,
000000000000000000000000000000000000000008000000,
#GOGOEND
20000002,
0222,
#GOGOSTART
17,
8,
12,
12,
12,
4440,
#GOGOEND
1
#GOGOSTART
4
#GOGOEND
1
#GOGOSTART
4,
#GOGOEND
1
#GOGOSTART
4
#GOGOEND
1
#GOGOSTART
4,
10101110,
2220,
0900,
,
09,
#GOGOEND
8,
,
2,
0002,
2,
0022,
7,
,
8,
#END

COURSE:Easy
LEVEL:5
BALLOON:3,3,5,6,4,4,10,4,8,12
SCOREINIT:700
SCOREDIFF:170
#START
2,
,
2,
,
2,
01,
20020020,
14,
#GOGOSTART
600000000000000000000000000008000000000000000000,
1011,
600000000000000000000000000008000000000000000000,
10004003,
00001001,
01,
33,
33,
#GOGOEND
9,
,
98,
2220,
11,
1011,
11,
1022,
12,
12,
7008,
30030003,
000000000000600000000000000000000000000000000008,
01,
100070,
08,
12,
12,
11,
500000000000000000000000000000000000000000000008,
,
2,
22,
2,
2,
1,
22,
11,
12,
12,
1111,
7,
80000001,
00001005,
000000000000000000000008000000000000000000200000,
00002005,
000000000000000000000008000000000000000000100000,
00001005,
000000000000000000000008000000000000000000000000,
33,
33,
0402,
2222,
78,
10000100,
#GOGOSTART
30001001,
00200200,
10001001,
00200200,
1001,
1001,
10000017,
08,
30001005,
000000000000000000000008000000000000000000000000,
20002000,
000000000000000000000008000000000000000000000000,
#GOGOEND
3
#GOGOSTART
0
#GOGOEND
3
#GOGOSTART
0,
#GOGOEND
3
#GOGOSTART
0
#GOGOEND
3
#GOGOSTART
0,
7,
0000008
#GOGOEND
0,
#GOGOSTART
30001001,
00200200,
10001002,
00001003,
00000003,
00000003,
00000006,
000000000000000000000000000008000000000000000000,
#GOGOEND
20000002,
02,
#GOGOSTART
17,
08,
11,
11,
11,
4440,
#GOGOEND
1
#GOGOSTART
0
#GOGOEND
1
#GOGOSTART
0,
#GOGOEND
1
#GOGOSTART
0
#GOGOEND
1
#GOGOSTART
0,
1110,
2220,
0900,
,
09,
#GOGOEND
8,
,
2,
,
2,
02,
7,
,
8,
#END
