//TJADB Project
TITLE:Homura
TITLEJA:炎
SUBTITLE:--LiSA/Kimetsu no Yaiba: Mugen Ressha
SUBTITLEJA:「鬼滅の刃」より
BPM:76
WAVE:Homura.ogg
OFFSET:-3.322
DEMOSTART:68.805

COURSE:Oni
LEVEL:4
BALLOON:51
SCOREINIT:1160
SCOREDIFF:368
#START
11,
10010000,
11,
10010000,
00000001,
1011000110110001,
1011011000000011,
1011001010100010,
100000100100000500000000000008000000000000100000,
1011000110110001,
100000100100000100500000000000000008000000100100,
1011001010110011,
1011011030303030,
3010101110101011,
1010101110101011,
1010101110101011,
1010101110101011,
1011011010110111,
1011011010110111,
11113336,
000000000000000000000000000008000000100100100100,
#GOGOSTART
1000111110001111,
100000100500008000100500000000000008000000100100,
100000100100000100000100100100100000300000600008,
000000300000100100500000000008000000100100100100,
1000111110001011,
100000100500008000100000300000300000300000300000,
000000100000100000100100100000100500008000100100,
100000100100000100500000000000000008000000100100,
#GOGOEND
1000001110101000,
7,
00080000,
10101011,
11110000,
#END

COURSE:Hard
LEVEL:1
BALLOON:15,27
SCOREINIT:1480
SCOREDIFF:798
#START
11,
10010000,
11,
10010000,
00000001,
11,
10000001,
10011001,
10000001,
11,
500000000000000000000000000008000000000000100000,
10011001,
10001111,
10111011,
10101111,
10111011,
10000001,
10011001,
10011001,
11113336,
000000000000000000000000000008000000000000000000,
#GOGOSTART
30111011,
100000000000100000000000500000000008000000000000,
10001117,
08,
30111011,
10101113,
01113001,
600000000000000000000000000008000000000000100000,
#GOGOEND
30013000,
7,
00080000,
10101011,
11110000,
,
,
#END

COURSE:1
LEVEL:2
BALLOON:11,24
SCOREINIT:1580
SCOREDIFF:1200
#START
11,
10010000,
11,
10010000,
00000001,
11,
10000001,
11,
10000001,
11,
500000000000000000000000000008000000000000100000,
11,
1,
10111010,
11,
10111010,
1,
33,
33,
30303336,
000000000000000000000000000008000000000000000000,
#GOGOSTART
33,
1110,
10001117,
08,
33,
10101113,
03,
600000000000000000000000000008000000000000000000,
#GOGOEND
33,
7,
00080000,
1111,
11110000,
,
,
#END

COURSE:0
LEVEL:1
BALLOON:7,13
SCOREINIT:1320
SCOREDIFF:1283
#START
11,
10010000,
11,
10010000,
0,
11,
1,
11,
1,
11,
500000000000000000000000000008000000000000000000,
11,
1,
1110,
1,
1110,
1,
33,
33,
30303036,
000000000000000000000000000008000000000000000000,
#GOGOSTART
33,
1110,
10001007,
08,
33,
10101003,
03,
600000000000000000000000000008000000000000000000,
#GOGOEND
33,
7,
00080000,
1110,
10010000,
,
,
#END
