//TJADB Project
TITLE:peta, PETA⁉ Pumpkin
TITLEJA:ぺた・PETA!?パンプキン
SUBTITLE:--Yu~Qre
SUBTITLEJA:ゆ~くれ
BPM:112
WAVE:peta, PETA! Pumpkin.ogg
OFFSET:-0.597
DEMOSTART:38.599

COURSE:Oni
LEVEL:9
BALLOON:9,9,9,5,8,9
SCOREINIT:610
SCOREDIFF:153
#START
00000200021000000000,
00000200021000000000,
00000200021000000000,
101100101100300300000000,
#MEASURE 3/4
100200102002102200,
#MEASURE 4/4
100000200000100020200020100000100000000300000000,
#MEASURE 3/4
102202102002102200,
#MEASURE 4/4
1020202020102020202010000300003000000000,
#MEASURE 3/4
102201022010220,
#MEASURE 4/4
100202001100400000200000,
#MEASURE 3/4
200101002200112200,
#MEASURE 4/4
100101001100200000300000,
#MEASURE 3/4
100200102002102200,
#MEASURE 4/4
101100101107000000800000,
#MEASURE 3/4
102202102002102200,
#MEASURE 4/4
101101101007000000800000,
#MEASURE 3/4
100200102002102200,
#MEASURE 4/4
101011101007000000800000,
#MEASURE 3/4
102202102002102200,
101101101003000000,
#BARLINEOFF
#MEASURE 1/4
22222,
#BARLINEON
#GOGOSTART
#MEASURE 3/4
100200102002102200,
#MEASURE 4/4
100200102202100400400000,
#MEASURE 3/4
102202102002102100,
#MEASURE 3/4
102202101007000800,
#BARLINEOFF
#MEASURE 1/4
11111,
#BARLINEON
#MEASURE 3/4
100200102001102200,
#MEASURE 4/4
100200102201100400400000,
#MEASURE 3/4
102202102001102100,
#MEASURE 4/4
1020202020102020202010000300003000000000,
#GOGOEND
#BARLINEON
#MEASURE 3/4
102201022010220,
#MEASURE 4/4
102201102201001100300000,
#MEASURE 3/4
102201022010220,
#MEASURE 4/4
102201102200300000200000,
#MEASURE 3/4
112201122011220,
#MEASURE 4/4
101202101202001100300000,
#MEASURE 3/4
112201122011220,
100100200200000100100000200020001000,
#MEASURE 1/4
#BARLINEOFF
10202,
#MEASURE 4/4
#BARLINEON
00000200021000000000,
00000200021000000000,
00000200021000000000,
1178,
#MEASURE 3/4
100102002010110,
#MEASURE 4/4
20020101105000080000,
#MEASURE 3/4
101102002010110,
#MEASURE 4/4
20220300006000080000,
#MEASURE 3/4
100201002010020,
#MEASURE 4/4
20020100105000080000,
#MEASURE 3/4
102102102202101100,
#MEASURE 4/4
2020202020202020202010000300003000000000,
#BARLINEON
#MEASURE 3/4
100200
#GOGOSTART
102101201100,
#MEASURE 4/4
100200102101200300300000,
#MEASURE 3/4
102202102202101100,
#MEASURE 4/4
101101101007000000800000,
#MEASURE 3/4
102102102102101100,
#MEASURE 4/4
100100102101201102101100,
#MEASURE 3/4
121212121210220,
#MEASURE 1/4
122122,
#BARLINEOFF
12222,
#MEASURE 2/4
1330,
#BARLINEON
#MEASURE 3/4
111122221110220,
#MEASURE 4/4
1010202010101020202010000400004000000000,
#GOGOEND
#BARLINEON
#MEASURE 3/4
100200100201102200,
#MEASURE 4/4
100202102200600000000000,
000000000000000000000000000000000000000000000008,
0000000000101020102010201010200000030000,
#END

COURSE:Hard
LEVEL:6
BALLOON:6,6,6,6,5,6,25
SCOREINIT:810
SCOREDIFF:200
#START
00000000022000000000,
00000000022000000000,
00000000022000000000,
10103300,
#MEASURE 3/4
100200101001000000,
#MEASURE 4/4
100100100001000000000000,
#MEASURE 3/4
100200101001000000,
#MEASURE 4/4
2020202000200000000010000100001000000000,
#MEASURE 3/4
333,
#MEASURE 4/4
100101001100300000000000,
#MEASURE 3/4
2,
#MEASURE 4/4
100101001100300000000000,
#MEASURE 3/4
100200101001000000,
#MEASURE 4/4
100100100107000000800000,
#MEASURE 3/4
100200101001000000,
#MEASURE 4/4
100200101007000000800000,
#MEASURE 3/4
100200101001000000,
#MEASURE 4/4
101010101007000000800000,
#MEASURE 3/4
100200101001000000,
#MEASURE 4/4
100100101003000000000000,
#GOGOSTART
#MEASURE 3/4
100200101001000200,
#MEASURE 4/4
100100100001000400400000,
#MEASURE 3/4
100200101001000200,
#MEASURE 4/4
100200101007000000800000,
#MEASURE 3/4
100200101001000200,
#MEASURE 4/4
100200100001000400400000,
#MEASURE 3/4
100200101001000000,
#MEASURE 4/4
2020202000200000000010000100001000000000,
#GOGOEND
#MEASURE 3/4
333,
#MEASURE 4/4
100100102201000100100000,
#MEASURE 3/4
333,
#MEASURE 4/4
100101001100100000200000,
#MEASURE 3/4
333,
#MEASURE 4/4
100100102201000100100000,
#MEASURE 3/4
333,
#MEASURE 4/4
1011011040000000,
00000000022000000000,
00000000022000000000,
00000000022000000000,
1178,
#MEASURE 3/4
121,
#MEASURE 4/4
20020100105000080000,
#MEASURE 3/4
121,
#MEASURE 4/4
200000000000300000000000600000000008000000000000,
#MEASURE 3/4
111,
#MEASURE 4/4
20020100105000080000,
#MEASURE 3/4
111,
#MEASURE 4/4
2020202000200000000010000100001000000000,
#MEASURE 3/4
100200
#GOGOSTART
102001000200,
#MEASURE 4/4
100100100001000300300000,
#MEASURE 3/4
100200102001000200,
#MEASURE 4/4
100200102007000000800000,
#MEASURE 3/4
111112,
#MEASURE 4/4
11111210,
#MEASURE 3/4
101010101010000,
#MEASURE 4/4
11103330,
#BARLINEON
#MEASURE 3/4
111011101110000,
#MEASURE 4/4
2020202000202020200040000400004000000000,
#GOGOEND
#MEASURE 3/4
,
#MEASURE 4/4
9,
9800,
#MEASURE 4/4
0000000000101010100020202020200000030000,
#END

COURSE:Normal
LEVEL:5
BALLOON:4,4,4,10,3,4,7,15
SCOREINIT:940
SCOREDIFF:240
#START
02,
02,
02,
10103300,
#MEASURE 3/4
100100100001000000,
#MEASURE 4/4
100100100001000000000000,
#MEASURE 3/4
100100100001000000,
#MEASURE 4/4
20201110,
#MEASURE 3/4
333,
#MEASURE 4/4
100001000100300000000000,
#MEASURE 3/4
2,
#MEASURE 4/4
300003000300300000000000,
#MEASURE 3/4
100100100001000000,
#MEASURE 4/4
100100100007000000800000,
#MEASURE 3/4
100100100001000000,
#MEASURE 4/4
100100100007000000800000,
#MEASURE 3/4
100100100001000000,
#MEASURE 4/4
101010100007000000800000,
#MEASURE 3/4
100100100001000000,
#MEASURE 4/4
300300300003000000000000,
#GOGOSTART
#MEASURE 3/4
100100100001000000,
#MEASURE 4/4
100100100001000400400000,
#MEASURE 3/4
100100100001000000,
#MEASURE 4/4
200200200002000000000000,
#MEASURE 3/4
100100100001000000,
#MEASURE 4/4
100100100001000400400000,
#MEASURE 3/4
100100100001000000,
#MEASURE 4/4
20201110,
#GOGOEND
#MEASURE 3/4
333,
#MEASURE 4/4
500000000000000000000000000000000008000000000000,
#MEASURE 3/4
333,
#MEASURE 4/4
7008,
#MEASURE 3/4
333,
#MEASURE 4/4
500000000000000000000000000000000008000000000000,
#MEASURE 3/4
333,
#MEASURE 4/4
1001001040000000,
02,
02,
02,
1178,
#MEASURE 3/4
121,
#MEASURE 4/4
22,
#MEASURE 3/4
121,
#MEASURE 4/4
22,
#MEASURE 3/4
121,
#MEASURE 4/4
22,
#MEASURE 3/4
111,
#MEASURE 4/4
20001110,
#BARLINEON
#MEASURE 3/4
100100
#GOGOSTART
100001000000,
#MEASURE 4/4
100100100001000300300000,
#MEASURE 3/4
100100100001000000,
#MEASURE 4/4
11107080,
#MEASURE 3/4
111110,
#MEASURE 4/4
11102020,
#MEASURE 3/4
500000000000000000000008000000000000,
#MEASURE 4/4
10103330,
#BARLINEON
#MEASURE 3/4
708,
#MEASURE 4/4
20204440,
#GOGOEND
#MEASURE 3/4
,
#MEASURE 4/4
9,
9800,
00200003,
#END

COURSE:Easy
LEVEL:4
BALLOON:8,8,8,8,8,5,12
SCOREINIT:900
SCOREDIFF:220
#START
02,
02,
02,
00003300,
#MEASURE 3/4
110,
#MEASURE 4/4
1100,
#MEASURE 3/4
110,
#MEASURE 4/4
2210,
#MEASURE 3/4
333,
#MEASURE 4/4
33,
#MEASURE 3/4
2,
#MEASURE 4/4
33,
#MEASURE 3/4
110,
#MEASURE 4/4
7008,
#MEASURE 3/4
110,
#MEASURE 4/4
7008,
#MEASURE 3/4
110,
#MEASURE 4/4
7008,
#MEASURE 3/4
330,
#MEASURE 4/4
600000000000000000000008000000000000000000000000,
#GOGOSTART
#MEASURE 3/4
110,
#MEASURE 4/4
10100440,
#MEASURE 3/4
110,
#MEASURE 4/4
2220,
#MEASURE 3/4
110,
#MEASURE 4/4
10100440,
#MEASURE 3/4
110,
#MEASURE 4/4
2210,
#GOGOEND
#MEASURE 3/4
333,
#MEASURE 4/4
500000000000000000000000000000000008000000000000,
#MEASURE 3/4
333,
#MEASURE 4/4
7008,
#MEASURE 3/4
333,
#MEASURE 4/4
500000000000000000000000000000000008000000000000,
#MEASURE 3/4
333,
#MEASURE 4/4
34,
02,
02,
02,
1110,
#MEASURE 3/4
101,
#MEASURE 4/4
2,
#MEASURE 3/4
101,
#MEASURE 4/4
2,
#MEASURE 3/4
101,
#MEASURE 4/4
2,
#MEASURE 3/4
111,
#MEASURE 4/4
20001110,
#MEASURE 3/4
1
#GOGOSTART
10,
#MEASURE 4/4
11100330,
#MEASURE 3/4
110,
#MEASURE 4/4
7008,
#MEASURE 3/4
111,
#MEASURE 4/4
11100330,
#MEASURE 3/4
500000000000000000000008000000000000,
#MEASURE 4/4
10103330,
#BARLINEON
#MEASURE 3/4
708,
#MEASURE 4/4
20204440,
#GOGOEND
#MEASURE 3/4
,
#MEASURE 4/4
9,
9800,
00000003,
#END
