//TJADB Project
TITLE:Diving Drive
TITLEJA:Diving Drive
SUBTITLE:--Tanchiky feat. MuMenkyo.
SUBTITLEJA:Tanchiky feat. MuMenkyo.
BPM:193
WAVE:Diving Drive.ogg
OFFSET:-1.421
DEMOSTART:70.118

COURSE:Oni
LEVEL:10
BALLOON:15,8
SCOREINIT:390
SCOREDIFF:98
#START
#MEASURE 1/4
#SCROLL 3
#GOGOSTART
4,
#GOGOEND
#MEASURE 4/4
#SCROLL 1
10000021,
0010100010001111,
10010211,
0011101110111110,
1022102210221210,
0022100000004000,
#GOGOSTART
1101201012021020,
1121202021211021,
1101201012021020,
1221201021221021,
1101201012021020,
1121202021211021,
1101201012021020,
10101222,
#GOGOEND
1020101012002000,
1020101012002000,
101102101102,
1000100012101222,
1000100010102022,
1010201210102222,
100000100000200010002000100000100000200200200200,
1010201212102000,
1000100012221000,
1010210120112020,
100000100000200100000100200010001000200000200000,
1010201212112000,
1010202212221020,
1222102212221022,
1122112212221020,
1212121210101000,
1000100012210020,
0012202012102020,
1000100012100020,
0012202012121010,
1000101012210020,
0222202010102222,
1221122110101010,
7008,
2,
02,
2,
02,
1010201020121020,
100000101010200000100000200000100200100000202020,
1010221120102222,
1004,
#GOGOSTART
1001001001001001,
2210210210101111,
1001001001001001,
2210210210102222,
1011101111111011,
1011101111111011,
1111111170000080,
1222122212221000,
#GOGOEND
1010222211112000,
#GOGOSTART
1022102011211020,
0021102110221222,
1022102011221010,
0011201120112211,
1011201210211010,
1211201210211022,
1122121111221210,
0010101022112121,
1000201120112110,
0012101210221121,
1000100022122010,
0022102210221212,
1000201120112110,
0104,
#GOGOEND
1001201011022010,
2102102012221020,
1001201011022010,
2102102020202020,
1001201011022010,
2102102021021020,
1012101210121012,
1000200011112000,
#GOGOSTART
1001202012112011,
2120201211202012,
1001202012112011,
2121201211202012,
1001202012112011,
2120201211202012,
1011211121112111,
#GOGOEND
2112111211112000,
#GOGOSTART
1101201012021020,
1212102012221212,
2101201012021020,
1212102012211221,
1101201012021020,
1212102012221212,
2101201012021020,
1444,
#GOGOEND
1,
#END

COURSE:Hard
LEVEL:8
BALLOON:10,5
SCOREINIT:480
SCOREDIFF:120
#START
#MEASURE 1/4
#SCROLL 3
#GOGOSTART
4,
#GOGOEND
#MEASURE 4/4
#SCROLL 1
10000021,
0010100010001110,
10010211,
0010100010001110,
1000100010111010,
0104,
#GOGOSTART
1002202010022020,
1022202010000000,
1002202010022020,
1022202010000000,
1002202010022020,
1022202010000000,
1002202010022020,
10101222,
#GOGOEND
1020101022002000,
1020101022002000,
101100101100,
1110,
10101120,
11201120,
1010200011102000,
1010200011102000,
10101022,
11201022,
11201022,
1010200011102000,
1110200011102000,
1110200011102000,
1110111011101020,
500000000000000008000000100000100000100000000000,
10101002,
0010200011102020,
10101002,
0010200011101010,
10111002,
0010200011102020,
1110111010101010,
7008,
2,
02,
2,
02,
11212012,
11212012,
1010201020002220,
1004,
#GOGOSTART
1001001001001001,
0010010010101000,
1001001001001001,
0010010010101000,
1011101010111010,
1011101010111010,
1011101170000080,
3333,
#GOGOEND
0004,
#GOGOSTART
1010102000222010,
0022202220001020,
1010102000222010,
0011101110001020,
1000200010222010,
0010200010222050,
000000000000000000000000000000000000000008000000,
01110000,
10201121,
0011101110002000,
10201121,
0011101110002020,
1000200010222010,
0104,
#GOGOEND
1002201010002000,
1002201010001020,
1002201010002000,
1002202020202020,
1002202010022020,
1002202010022020,
10101011,
1000200010112000,
#GOGOSTART
1000200000102011,
1000200000102011,
1000200000102011,
1000200010202011,
1000200011102011,
1000200011102011,
11212121,
#GOGOEND
500000000000000000000000000008000000200000000000,
#GOGOSTART
1002202010022020,
1022202010002000,
1002202010022020,
1022202010002000,
1002202010022020,
1022202010002000,
1002202010022020,
1444,
#GOGOEND
1 ,
,
#END

COURSE:Normal
LEVEL:7
BALLOON:6,11,11
SCOREINIT:540
SCOREDIFF:140
#START
#MEASURE 1/4
#SCROLL 3
#GOGOSTART
4,
#GOGOEND
#MEASURE 4/4
#SCROLL 1
10000001,
01101011,
10000011,
01101011,
10101111,
0104,
#GOGOSTART
10201022,
10221000,
10201022,
10221000,
10201022,
10221000,
10201022,
1110,
#GOGOEND
10012020,
10012020,
1111,
1110,
10101120,
10201120,
10201120,
10201120,
1112,
11201022,
10201022,
10201120,
11201120,
11201120,
10101112,
500000000000000008000000100000100000100000000000,
10101002,
01201022,
10101002,
01201022,
10111002,
01201022,
1111,
7008,
2,
02,
2,
02,
10212010,
10212010,
10212010,
1004,
#GOGOSTART
7,
00801110,
7,
00801110,
10111011,
10111011,
500000000000000000000000000008000000000000000000,
3333,
#GOGOEND
0004,
#GOGOSTART
11110221,
02201022,
11110221,
02201022,
10201121,
01201125,
000000000000000000000000000000000000000008000000,
01110000,
10201121,
02210020,
10201121,
02201022,
10201121,
0104,
#GOGOEND
10011020,
10011020,
10011020,
10011000,
10221022,
10221022,
10101011,
1214,
#GOGOSTART
10200121,
10200121,
10200121,
10201220,
10200121,
10200121,
1222,
#GOGOEND
500000000000000000000000000008000000200000000000,
#GOGOSTART
10201022,
10221020,
10201022,
10221020,
10201022,
10221020,
10201022,
1444,
#GOGOEND
1 ,
,
#END

COURSE:Easy
LEVEL:5
BALLOON:4,9,9
SCOREINIT:500
SCOREDIFF:130
#START
#MEASURE 1/4
#SCROLL 3
#GOGOSTART
4,
#GOGOEND
#MEASURE 4/4
#SCROLL 1
10000001,
0110,
10000001,
0110,
10101001,
0100,
#GOGOSTART
11,
1210,
11,
1210,
11,
1210,
11,
1110,
#GOGOEND
12,
12,
1110,
1110,
1102,
0202,
0202,
0202,
1110,
1210,
1210,
1210,
1202,
0202,
0202,
500000000000000000000008000000000000000000000000,
10101002,
0220,
10101002,
0220,
10101002,
0220,
1111,
7008,
2,
02,
2,
02,
12,
12,
12,
1,
#GOGOSTART
7,
0800,
7,
0800,
1110,
1110,
500000000000000000000000000000000008000000000000,
3333,
#GOGOEND
,
#GOGOSTART
10100201,
0210,
10100201,
0210,
1210,
00201005,
000000000000000000000000000000000000000008000000,
,
10101011,
0202,
10101011,
0202,
10101011,
0200,
#GOGOEND
1012,
1012,
1012,
1,
1212,
1212,
1111,
1,
#GOGOSTART
1202,
1202,
1202,
1202,
10200120,
10200120,
1222,
#GOGOEND
500000000000000000000000000008000000000000000000,
#GOGOSTART
1212,
10111000,
1212,
10111000,
1212,
10111000,
1212,
1444,
#GOGOEND
1 ,
,
#END
