//TJADB Project
TITLE:VIVIVIVID
TITLEJA:VIVIVIVID
SUBTITLE:--M-O-T-U
SUBTITLEJA:M-O-T-U
BPM:177.954
WAVE:VIVIVIVID.ogg
OFFSET:-1.319
DEMOSTART:76.837

COURSE:Oni
LEVEL:10
BALLOON:6
SCOREINIT:1500
SCOREDIFF:0
#START
2,
22,
2,
22,
2,
22,
2,
22,
#GOGOSTART
1002102011021022,
1002102011221020,
1002102011021022,
1002102011221020,
1002102011021022,
1002102011221020,
1002102011021020,
200000101010200000100100101010200000100000400000,
#GOGOEND
200000101010100000200000300000200100200000100000,
100000202020200000200000300000200200200100100100,
200000101010100000200000300000100100200100200200,
100000202020200000200000300000200200100000100000,
100000202020100000200200100200200100200000100000,
100000202020100000200200100000200100200000100000,
100000202020100200200000100000200100200200100000,
100000202020200000200000100000202010100000100000,
200000101010100000200000100000101010100200100000,
100222200200100222200000,
200000101010100000200000100000101010100100200000,
100222200200100222200000,
200000101010100000200000100000101010100200100000,
100222200200100222200000,
200000101010100000200000100000101010100100200000,
100000202020200000200000200000000000
#GOGOSTART
#SCROLL 3
500008000000,
#SCROLL 1
1222122212212212,
1222122212212212,
1222122212212212,
1000200012212012,
1222122212212212,
1222122212212212,
1222122212212212,
1022100012212012,
#GOGOEND
2,
,
,
,
2,
22,
2,
2000000020122000,
1011202012112010,
1011202102112010,
1011202010112010,
1011221020122020,
1011202012112010,
1011202102112010,
1011202010112010,
1122112270000080,
#GOGOSTART
100000202020100000200000100000202020100200200000,
100222100200100222100000,
100000202020100000200000100000202020100200200000,
100222100200100222100000,
100000202010100000200000100000202010100200200000,
100221100200100221100000,
100000202010100000200000100000202010100200200000,
100221100200100221100000,
1001002010012210,
1021202010012210,
1021002012212210,
1021202010010010,
1001002010012210,
1021202010012210,
1021002012212210,
1021201212112020,
#GOGOEND
3,
#END

COURSE:Hard
LEVEL:6
BALLOON:12,8,24
SCOREINIT:3280
SCOREDIFF:0
#START
2,
22,
2,
22,
2,
22,
2,
22,
#GOGOSTART
10121020,
10121120,
10121020,
10121220,
10121020,
10121120,
7,
0008,
#GOGOEND
2010102030010010,
1010202030020020,
2010102030010010,
1010202030020020,
21001200,
12002100,
21001200,
500000000000000000000000000000000008000000000000,
2000102010002220,
10221010,
2000102010002220,
10221020,
2000102010002220,
10221010,
2000102010002220,
100200201000
#GOGOSTART
4000,
1000100010010010,
1000100010010010,
1000100010010010,
2000200022220022,
1000100010010010,
1000100010010010,
1000100010010010,
2000200022220022,
#GOGOEND
2,
,
,
,
2,
22,
2,
22,
10221021,
10210121,
10221021,
1000201020020020,
10221021,
10210121,
10221021,
70000008,
#GOGOSTART
1000102010002220,
10121010,
1000102010002220,
10221020,
1000102010002220,
10121010,
1000102010002220,
500000000000000000000000000000000008000000000000,
1001002010001000,
11101010,
1001002010002000,
1010101010020010,
1001002010001000,
11101010,
9,
09,
#GOGOEND
8,
#END

COURSE:Normal
LEVEL:5
BALLOON:8,24,24,6,16
SCOREINIT:5800
SCOREDIFF:0
#START
2,
22,
2,
22,
2,
22,
2,
22,
#GOGOSTART
10111020,
1120,
10111020,
1220,
10111020,
1120,
7,
0008,
#GOGOEND
20110000,
10220000,
20110000,
10220000,
22001100,
11002200,
22001100,
500000000000000000000000000000000008000000000000,
1212,
10111000,
2121,
20222000,
1212,
10111000,
10111010,
100100100000
#GOGOSTART
4000,
9,
,
09,
8,
9,
,
09,
8,
#GOGOEND
2,
,
,
,
2,
22,
2,
22,
1022,
10020020,
1022,
1120,
1022,
10020020,
1022,
70000008,
#GOGOSTART
10111020,
1120,
10111020,
1220,
10111020,
1120,
10111010,
500000000000000000000000000000000008000000000000,
10011020,
1210,
10011020,
1210,
10011020,
1210,
9,
09,
#GOGOEND
8,
#END

COURSE:Easy
LEVEL:3
BALLOON:6,20,20,4,12
SCOREINIT:9550
SCOREDIFF:0
#START
2,
22,
2,
22,
2,
22,
2,
22,
#GOGOSTART
1,
11,
2,
22,
1,
11,
7,
0008,
#GOGOEND
2,
1,
2,
1,
11,
22,
11,
500000000000000000000000000008000000000000000000,
11,
1110,
22,
2220,
11,
1110,
1110,
100100100000
#GOGOSTART
4000,
9,
,
09,
8,
9,
,
09,
8,
#GOGOEND
2,
,
,
,
2,
,
2,
22,
12,
1,
12,
12,
12,
1,
12,
70000008,
#GOGOSTART
11,
1110,
22,
2220,
11,
1110,
1111,
500000000000000000000000000008000000000000000000,
1011,
12,
1011,
12,
1011,
12,
9,
09,
#GOGOEND
8,
#END
