//TJADB Project
TITLE:1・2・Sanshi no de Dondokakka!
TITLEJA:1・2・さんしのでドンドカッカッ!
SUBTITLE:--AI Kiritan feat. Yuki Hirose
SUBTITLEJA:AIきりたん feat.ユーキヒロセ
BPM:142
WAVE:1
2 Sanshi no de Dondokakka!.ogg
OFFSET:-1.008
DEMOSTART:42.407

COURSE:Edit
LEVEL:9
BALLOON:4,4
SCOREINIT:1400
SCOREDIFF:0
#START
#SCROLL 2
300000300000200200200200000200200000200000200000,
300000300000200200200200000200200000200000200000,
300000300000200200200200000200200000200000200000,
300000300000300000300000600000000800400000000000,
#GOGOSTART
100000200000100100200100000100200000100100200000,
100000200000100100200100000100200000100100200000,
100000200000100100200100000100200000100100200000,
100000200200100000200200100000200200200200100000,
#GOGOEND
300000200200200000200200300000200000200000000000,
300000200200200000200200300000000300000000300000,
300000200000100100200000100000200000100100200000,
100000200100100100200000100000200000200000200000,
100100200200200000200200100100200000200000000000,
100100200200200200200200300000000300000000300000,
300000200000100100200000100000200000100100200000,
100000200100000200200200100000200000200000200200,
100000200100200200100100000100200000100100100000,
100000200100200200100100000100200000200000200000,
100000200100200200100100000100200000100100200200,
300000000000300000000000300000200200200200200200,
100000200100100100200000100000200100100100200000,
100000100000200100200000100000200100200200100000,
300000300000200200200000300000000300000000300000,
300000200300000200200200300000200300000200300000,
300000000300000000300000100000000000400000000000,
#GOGOSTART
100000200000100100200300000300400000400000000000,
100000200000100100200300000300400000400000000000,
100000200200100100200000100000200100200200100000,
100000200100100100200000100000200000200200200200,
100000100000200200100100100000200100200200100000,
600008000000600008000000600000000008000000200000,
100000200000100100200000100000200100200200100000,
#SCROLL 3
300000000000400000000000700000000000800000000000,
#SCROLL 2
100000200000100100200300000300400000400000000000,
100000200000100100200300000300400000400000000000,
100000100000200200200200100000100100200100100000,
100000100100200100100200100000100100200100100000,
100000200000100200100000200000100200100000200000,
200000100000200100200000100000200100200000100100,
100000200200100100200200100100200200200200100100,
300000000000000000000000000000000000000000000000,
#GOGOEND
300000300000200200100200000200100000200000100000,
300000300000202020100200200200100200200200100000,
300000300000202020100000202020100000202020100000,
300000300000300000300000600000000800400000000000,
100000200100100100200000100000200100100100200000,
100000200100100100200200100000200100100100200000,
100100100100200200200200100000200100100100200000,
100000100000200100100200100000200100100200100000,
300000200300000200200200300000200300000200200200,
300000000300000000300000100000000000400000000000,
#GOGOSTART
100000200000100000200300000300400000400000000000,
100000200000100000200300000300400000400000000000,
100000100000100100100000100200200100200200100000,
400000000400000000400000300000200200200200200200,
100000100000200200100100100000200100200200100000,
600008000000600008000000600000000008000000200000,
100000200000100100200000100200200100200200100000,
#SCROLL 3
300000000000400000000000700000000000800000000000,
#SCROLL 2
100100200200100100200300000300400000400000000000,
100200100200100100200300000300400000400000000000,
100000100000200200200200100000100100200100100000,
100000100100200100100200100200100100200100100000,
100000200000100200100000200000100200100000200000,
200000100000200100200000100000200100200000100100,
100000200200200200200200200200200200200200200200,
300000000000000000000000000000000000
#SCROLL 3
#GOGOEND
400000000000,
#SCROLL 2
#GOGOSTART
100000200000100100200100000100200200100100200000,
100000200000100100200100000100200200100100200000,
100000200000100100200100000100200200100100200000,
100000100200100000100200100000100200100200100000,
#GOGOEND
300000000300000000300000400000000000000000000000,
#END

COURSE:Oni
LEVEL:7
BALLOON:20,20
SCOREINIT:1930
SCOREDIFF:0
#START
300000300000200200200200000200200000200000000000,
300000300000200200200200000200200000200000000000,
300000300000200200200200000200200000200000000000,
300000300000300000300000600008000000400000000000,
#GOGOSTART
100000200000100100100100000200200000200000000000,
100000200000100100100100000200200000200000000000,
100000200000100100100100000200200000200000000000,
100000200200200000200200200000200200200000100000,
#GOGOEND
300000000000000000000000100000000000000000000000,
100000000000000000000000100000000100000000100000,
100000200000100100100000100000200000100100100000,
100000100100000200200000100000200000200000000000,
200000200200200000200200200000200000200000000000,
200000200200200000200200200000000200000000200000,
100000200000100100100000100000200000100100100000,
100000100100000200200000100000200000200000000000,
100000100100100000100100000000200000200000000000,
200000200200200000200200000000100000100000000000,
100000100100100000100100000000200000200000000000,
300000000000300000000000300000200000200000100100,
100000100100000200200000100000100100000200200000,
100000200000200000200000100000100100000100100000,
400000400000000000000000300000000300000000300000,
700000000000000000000000000000000000000000000000,
800000000000000000000000100000000000400000000000,
#GOGOSTART
100000200000100000200100000100200000400000000000,
100000200000100000200100000100200000400000000000,
100000200000100000200000100000200100000100200000,
100000200100000100200000200000000000100000000000,
100000200000100000100100100000200000100000200000,
600008000000600008000000600000000008000000100000,
200000100000100100100000100000100100000000100000,
#SCROLL 2
300000000000300000000000300000000000000000000000,
#SCROLL 1
100000200000100000200100000100200000400000000000,
100000200000100000200100000100200000400000000000,
100000100000200200200200100000000100000000100000,
500000000000000000000000000000000000000000000000,
000008000000000000100000100000200200200000100000,
200000100000200200200000100000200000200000100100,
100000200200200000200200200000200200200000100000,
300000000000000000000000000000000000000000000000,
#GOGOEND
300000300000200200200200000200200000200000000000,
300000300000200000200200200200200200200000000000,
300000300000202020200000202020200000200000000000,
300000300000300000300000600008000000400000000000,
100000200100000100200000100000200100000100200000,
100000200100000100200000100000100100000000000000,
100100100100100100100000200000200200000000200000,
300000000000300000000000300000200000200000200000,
700000000000000000000000000000000000000000000000,
800000000000000000000000100000000000400000000000,
#GOGOSTART
100000200000100000000100000100200000400000000000,
100000200000100000000100000100200000400000000000,
100000100000100000100000100000000100000000100000,
200000000200000000200000200000000000100000000000,
100000200000100000100100100000200000100000200000,
600008000000600008000000600000000008000000100000,
200000100000100100100000100000100100000000100000,
#SCROLL 2
300000000000300000000000300000000000000000000000,
#SCROLL 1
100000200000100000200100000100200000400000000000,
100000200000100000200100000100200000400000000000,
100000100000200200200200100000000100000000100000,
500000000000000000000000000000000000000000000000,
000008000000000000100000100000200200200000100000,
200000100000200200200000100000200000200000100100,
100000200200200000200200200000200200200000100000,
300000000000000000000000000000000000
#SCROLL 2
#GOGOEND
400000000000,
#SCROLL 1
#GOGOSTART
100000200000100100100100000100200000200000000000,
100000200000100100100100000100200000200000000000,
100000200000100100100100000100200000200000000000,
100000200200200000200200200000200200200200100000,
#GOGOEND
300000000200000000200000300000000000000000000000,
#END

COURSE:Hard
LEVEL:4
BALLOON:12,16,16
SCOREINIT:3300
SCOREDIFF:0
#START
300000300000000000000000000000000000000000000000,
300000300000000000000000000000000000000000000000,
300000300000000000000000000000000000000000000000,
300000300000300000300000300000300000400000000000,
#GOGOSTART
100000100000100000000100000000200000200000000000,
100000100000100000000100000000200000200000000000,
100000100000100000000100000000200000200000000000,
100000100000100000100000100000100000100000100000,
#GOGOEND
100000000000000000000000100000000000000000000000,
100000000000000000000000100000000100000000100000,
500000000000000000000000000000000080000000000000,
100000000100000000100000100000000000000000000000,
200000200000200000000000200000200000200000000000,
200000200000200000000000200000000200000000200000,
700000000000000000000000000000000800000000000000,
200000000200000000200000200000000000000000000000,
100000100000100000000100000000200000200000000000,
200000200000200000000200000000100000100000000000,
100000100000100000000100000000200000200000000000,
100000000000100000000000100000000000000000000000,
100000000100000000100000100000000100000000100000,
000000200000200000200000200000000200000000000000,
300000300000000000000000300000000300000000300000,
900000000000000000000000000000000000000000000000,
800000000000000000000000000000000000000000000000,
#GOGOSTART
100000100000100000000100000100200000200000000000,
100000100000100000000100000100200000200000000000,
100000100000200000200000100000000100000000100000,
500000000000000000000000000000000080000000000000,
200000000000200000000000200000200000200000200000,
400000000000400000000000400000000000000000000000,
100000100000100000000000100000000100000000100000,
300000000000300000000000300000000000000000000000,
100000100000100000000100000100200000200000000000,
100000100000100000000100000100200000200000000000,
100000100000200200200000100000000100000000100000,
500000000000000000000000000000000000000000000000,
000080000000000000200000200000200000200000200000,
200000000000200000200000200000000000000000300000,
600000000000000000000000000000000080000000000000,
300000000000000000000000000000000000000000000000,
#GOGOEND
300000300000000000000000000000000000000000000000,
300000300000000000000000000000000000000000000000,
300000300000000000000000000000000000000000000000,
300000300000300000300000300000300000400000000000,
100000000100000000100000200000000200000000200000,
100000000100000000100000200000000200000000000000,
100000100000100000100000200000000200000000200000,
300000000000300000000000300000000000000000000000,
900000000000000000000000000000000000000000000000,
800000000000000000000000000000000000000000000000,
#GOGOSTART
100000000000000000000000100000000000200000000000,
100000000000000000000000100000000000200000000000,
100000000000000000000000100000000100000000100000,
500000000000000000000000000000000080000000000000,
200000000000200000000000200000200000200000200000,
400000000000400000000000400000000000000000000000,
100000100000100000000000100000000100000000100000,
300000000000300000000000300000000000000000000000,
100000100000100000000100000100200000200000000000,
100000100000100000000100000100200000200000000000,
100000100000200200200000100000000100000000100000,
500000000000000000000000000000000000000000000000,
000080000000000000200000200000200000200000200000,
200000000000200000200000200000000000000000300000,
600000000000000000000000000000000080000000000000,
300000000000000000000000000000000000
#GOGOEND
000000000000,
#GOGOSTART
100000100000200000000100000000200000200000000000,
100000100000200000000100000000200000200000000000,
100000100000200000000100000000200000200000000000,
300000300000300000300000300000300000300000300000,
#GOGOEND
300000000200000000200000300000000000000000000000,
#END

COURSE:Normal
LEVEL:1
BALLOON:17,10,10
SCOREINIT:8190
SCOREDIFF:0
#START
300000300000000000000000000000000000000000000000,
300000300000000000000000000000000000000000000000,
300000300000000000000000000000000000000000000000,
600000000000000000000000000000000080000000000000,
#GOGOSTART
100000000000000000000000000000000000100000000000,
100000000000000000000000000000000000100000000000,
100000000000000000000000000000000000100000000000,
500000000000000000000000000000000080000000000000,
#GOGOEND
100000000000000000000000100000000000000000000000,
100000000000000000000000100000000000000000000000,
500000000000000000000000000000000000000000000000,
000000000000000000000000000000000080000000000000,
200000000000000000000000200000000000000000000000,
200000000000000000000000200000000000000000000000,
700000000000000000000000000000000000000000000000,
000000000000000000000000000000800000000000000000,
100000000000100000000000000000000000000000000000,
100000000000100000000000000000000000000000000000,
100000000000100000000000000000000000000000000000,
100000000000100000000000100000000000000000000000,
200000000000000000000000200000000000000000000000,
200000000000000000000000200000000000000000000000,
300000300000000000000000300000000000000000000000,
900000000000000000000000000000000000000000000000,
800000000000000000000000000000000000000000000000,
#GOGOSTART
100000000000000000000000100000000000200000000000,
100000000000000000000000100000000000200000000000,
100000000000000000000000100000000000000000000000,
500000000000000000000000000000000080000000000000,
200000000000000000000000200000000000000000000000,
400000000000400000000000400000000000000000000000,
100000000000000000000000100000000000000000000000,
300000000000300000000000300000000000000000000000,
100000000000000000000000100000000000200000000000,
100000000000000000000000100000000000200000000000,
100000000000000000000000100000000000000000000000,
500000000000000000000000000000000000000000000000,
000080000000000000000000200000000000200000000000,
200000000000000000000000200000000000000000000000,
600000000000000000000000000000000080000000000000,
300000000000000000000000000000000000000000000000,
#GOGOEND
300000300000000000000000000000000000000000000000,
300000300000000000000000000000000000000000000000,
300000300000000000000000000000000000000000000000,
600000000000000000000000000000000080000000000000,
100000000000200000000000100000000000000000000000,
100000000000200000000000100000000000000000000000,
100000000000000000000000200000000000000000000000,
300000000000300000000000300000000000000000000000,
900000000000000000000000000000000000000000000000,
800000000000000000000000000000000000000000000000,
#GOGOSTART
100000000000000000000000200000000000000000000000,
100000000000000000000000200000000000000000000000,
100000000000000000000000200000000000000000000000,
500000000000000000000000000000000080000000000000,
200000000000000000000000200000000000000000000000,
400000000000400000000000400000000000000000000000,
100000000000000000000000100000000000000000000000,
300000000000300000000000300000000000000000000000,
100000000000000000000000100000000000200000000000,
100000000000000000000000100000000000200000000000,
100000000000000000000000100000000000000000000000,
500000000000000000000000000000000000000000000000,
000080000000000000000000200000000000200000000000,
200000000000000000000000200000000000000000000000,
600000000000000000000000000000000080000000000000,
300000000000000000000000000000000000
#GOGOEND
000000000000,
#GOGOSTART
100000000000000000000000000000000000200000000000,
100000000000000000000000000000000000200000000000,
100000000000000000000000000000000000200000000000,
500000000000000000000000000000000000000000000080,
#GOGOEND
000000000000000000000000300000000000000000000000,
#END

COURSE:Easy
LEVEL:1
BALLOON:14,8,8
SCOREINIT:12040
SCOREDIFF:0
#START
300000000000000000000000000000000000000000000000,
300000000000000000000000000000000000000000000000,
300000000000000000000000000000000000000000000000,
600000000000000000000000000080000000000000000000,
#GOGOSTART
100000000000000000000000000000000000000000000000,
100000000000000000000000000000000000000000000000,
100000000000000000000000000000000000000000000000,
500000000000000000000000000080000000000000000000,
#GOGOEND
100000000000000000000000100000000000000000000000,
100000000000000000000000000000000000000000000000,
500000000000000000000000000000000000000000000000,
000000000000000000000000000080000000000000000000,
100000000000000000000000100000000000000000000000,
100000000000000000000000000000000000000000000000,
700000000000000000000000000000000000000000000000,
000000000000000000000000000000800000000000000000,
100000000000000000000000000000000000000000000000,
100000000000000000000000000000000000000000000000,
100000000000000000000000000000000000000000000000,
100000000000000000000000100000000000000000000000,
100000000000000000000000000000000000000000000000,
100000000000000000000000000000000000000000000000,
300000000000000000000000000000000000000000000000,
900000000000000000000000000000000000000000000000,
800000000000000000000000000000000000000000000000,
#GOGOSTART
100000000000000000000000200000000000000000000000,
100000000000000000000000200000000000000000000000,
100000000000000000000000000000000000000000000000,
500000000000000000000000000080000000000000000000,
100000000000000000000000100000000000000000000000,
300000000000300000000000300000000000000000000000,
100000000000000000000000100000000000000000000000,
300000000000300000000000300000000000000000000000,
100000000000000000000000200000000000000000000000,
100000000000000000000000200000000000000000000000,
100000000000000000000000000000000000000000000000,
500000000000000000000000000000000000000000000000,
000080000000000000000000000000000000000000000000,
100000000000000000000000100000000000000000000000,
600000000000000000000000000080000000000000000000,
300000000000000000000000000000000000000000000000,
#GOGOEND
300000000000000000000000000000000000000000000000,
300000000000000000000000000000000000000000000000,
300000000000000000000000000000000000000000000000,
600000000000000000000000000080000000000000000000,
100000000000000000000000100000000000000000000000,
100000000000000000000000100000000000000000000000,
100000000000000000000000000000000000000000000000,
300000000000300000000000300000000000000000000000,
900000000000000000000000000000000000000000000000,
800000000000000000000000000000000000000000000000,
#GOGOSTART
100000000000000000000000200000000000000000000000,
100000000000000000000000200000000000000000000000,
100000000000000000000000000000000000000000000000,
500000000000000000000000000080000000000000000000,
100000000000000000000000100000000000000000000000,
300000000000300000000000300000000000000000000000,
100000000000000000000000100000000000000000000000,
300000000000300000000000300000000000000000000000,
100000000000000000000000200000000000000000000000,
100000000000000000000000200000000000000000000000,
100000000000000000000000200000000000000000000000,
500000000000000000000000000000000000000000000000,
000080000000000000000000000000000000000000000000,
100000000000000000000000100000000000000000000000,
600000000000000000000000000080000000000000000000,
300000000000000000000000000000000000
#GOGOEND
000000000000,
#GOGOSTART
100000000000000000000000000000000000000000000000,
100000000000000000000000000000000000000000000000,
100000000000000000000000000000000000000000000000,
500000000000000000000000000000000000000000000080,
#GOGOEND
000000000000000000000000300000000000000000000000,
#END
