//TJADB Project
TITLE:Hiyoko Kantei-shi-san
TITLEJA:ひよこ鑑定士さん
SUBTITLE:--Rissyuu feat. Choco
SUBTITLEJA:立秋 feat.ちょこ
BPM:192
WAVE:Hiyoko Kantei-shi-san.ogg
OFFSET:-0.953
DEMOSTART:56.314

COURSE:Oni
LEVEL:10
BALLOON:15,5,20,2,2,2
SCOREINIT:1170
SCOREDIFF:0
#START
#BPMCHANGE 128
1212,
#MEASURE 3/4
#BPMCHANGE 136
121,
#MEASURE 4/4
#BPMCHANGE 144
2121,
#MEASURE 3/4
#BPMCHANGE 152
212,
#MEASURE 4/4
#BPMCHANGE 160
12
#BPMCHANGE 168
12,
#MEASURE 3/4
#BPMCHANGE 176
12
#BPMCHANGE 184
1,
#MEASURE 4/4
#BPMCHANGE 198
2
#BPMCHANGE 206
1
#BPMCHANGE 208
2
#BPMCHANGE 216
1,
#MEASURE 3/4
#BPMCHANGE 224
2
#BPMCHANGE 232
1
#BPMCHANGE 240
2,
#MEASURE 4/4
#BPMCHANGE 248
10201212,
#BPMCHANGE 256
102010201212
#BPMCHANGE 248
#SCROLL 1.03
1212,
#MEASURE 6/4
#BPMCHANGE 240
#SCROLL 1.06
1212
#SCROLL 1.1
#BPMCHANGE 232
7000
#BPMCHANGE 224
0000
#BPMCHANGE 216
0000
#BPMCHANGE 208
0000
#BPMCHANGE 160
8000,
#MEASURE 4/4
#GOGOSTART
#BPMCHANGE 192
#SCROLL 1
1122010120200101,
#MEASURE 3/4
202002021010,
#MEASURE 4/4
2211020210100202,
#MEASURE 3/4
101002021122,
#MEASURE 4/4
1122011120200111,
#MEASURE 3/4
202001112020,
#MEASURE 4/4
1122011122200111,
#MEASURE 3/4
222070000080,
#GOGOEND
#MEASURE 4/4
11221122,
#MEASURE 3/4
121211,
#MEASURE 4/4
22112211,
#MEASURE 3/4
212140,
#MEASURE 4/4
1010202010102220,
#MEASURE 3/4
102010201110,
#MEASURE 4/4
2020101020201110,
#MEASURE 3/4
221022104000,
#MEASURE 4/4
1110202010102220,
#MEASURE 3/4
112010201110,
#MEASURE 4/4
2220101022221110,
#MEASURE 3/4
221022102222,
#MEASURE 4/4
100010002000100020001000100000100000200200200000,
#MEASURE 3/4
112011201110,
#MEASURE 4/4
2220111022201110,
#MEASURE 3/4
221122104000,
#MEASURE 5/4
12221,
22122,
12700,
#MEASURE 6/4
000000800222222222,
#MEASURE 4/4
1022102010201020,
1020102010201222,
12121212,
#MEASURE 5/4
10201020102012221222,
#MEASURE 4/4
1212121212121212,
#MEASURE 5/8
500008000000
#BPMCHANGE 177.8
500008000000
#BPMCHANGE 182.95
500008,
#MEASURE 1/64
#BARLINEOFF
#BPMCHANGE 71.2
5,
,
00008,
#BPMCHANGE 20
#SCROLL 2.23
6,
,
00008,
,
,
#BPMCHANGE 192
#BARLINEON
#GOGOSTART
#MEASURE 4/4
#SCROLL 1
1112010122200101,
#MEASURE 3/4
222001012220,
#MEASURE 4/4
1212010121100101,
#MEASURE 3/4
211001021222,
#MEASURE 4/4
1210010121100101,
#MEASURE 3/4
211001012212,
#MEASURE 4/4
1210010122100101,
#MEASURE 3/4
200200100000202020100000101010200000,
#MEASURE 4/4
100100200200101010200200100200100200101010200200,
#MEASURE 3/4
100200100200101010200200100200100000,
#MEASURE 4/4
100100200200101010200200100200100200101010200200,
#MEASURE 3/4
100200100200101010200200100200100000,
#MEASURE 4/4
100100200200101010200200100200100200101010200200,
#MEASURE 3/4
100200100200101010200200100200100000,
#MEASURE 4/4
100100200200101010200200100200100200101010200200,
#MEASURE 3/4
100200100200101010100000400000000000,
#GOGOEND
#SCROLL 1.5
330440,
440330,
330440,
440440,
330440,
330330,
440330,
#MEASURE 4/4
44044078,
#MEASURE 3/4
#SCROLL 1.75
440330,
440330,
440440,
#MEASURE 4/4
33044078,
#MEASURE 3/4
330330,
440440,
#MEASURE 2/4
4478,
#MEASURE 3/4
#SCROLL 2
440330,
330440,
330440,
#SCROLL 2.25
330440,
334433,
#MEASURE 2/4
44334433,
#SCROLL 1
#MEASURE 4/4
600000000000000000000008000000000000000000000000,
#SCROLL 0.67
100101202221,
101101202111,
101101202221,
#MEASURE 3/4
102122222,
#MEASURE 4/4
101201202111,
101101202221,
101101202111,
#MEASURE 3/4
#SCROLL 1
102022222222,
#GOGOSTART
#MEASURE 4/4
1212011122210122,
#MEASURE 3/4
122201122110,
#MEASURE 4/4
2121011222110221,
#MEASURE 3/4
222101221110,
#MEASURE 4/4
1212012221110212,
#MEASURE 3/4
221202211110,
#MEASURE 4/4
2121022111120122,
#MEASURE 3/4
212202111120,
#SCROLL 0.87
#MEASURE 4/4
#BPMCHANGE 220
1110002220002220,
#MEASURE 3/4
001110001110,
#SCROLL 0.85
#MEASURE 4/4
#BPMCHANGE 225
0022200022200011,
#MEASURE 3/4
100022200022,
#SCROLL 0.73
#MEASURE 4/4
#BPMCHANGE 260
2000111000222000,
#SCROLL 0.67
#MEASURE 2/4
#BPMCHANGE 285
11100022,
#SCROLL 0.61
#BPMCHANGE 310
20002220,
#SCROLL 0.58
#BPMCHANGE 327.6
00111000,
#SCROLL 0.53
#BPMCHANGE 360
11100011,
10002220,
#MEASURE 4/4
0112201010104000,
#GOGOEND
#BARLINEOFF
#END

COURSE:Hard
LEVEL:8
BALLOON:4,13,20,2,2,2,23,7,7
SCOREINIT:2310
SCOREDIFF:0
#START
#BPMCHANGE 128
1212,
#BPMCHANGE 136
#MEASURE 3/4
121,
#BPMCHANGE 144
#MEASURE 4/4
2121,
#BPMCHANGE 152
#MEASURE 3/4
212,
#BPMCHANGE 160
#MEASURE 4/4
12
#BPMCHANGE 168
12,
#BPMCHANGE 176
#MEASURE 3/4
12
#BPMCHANGE 184
1,
#BPMCHANGE 198
#MEASURE 4/4
2
#BPMCHANGE 206
1
#BPMCHANGE 208
2
#BPMCHANGE 216
1,
#BPMCHANGE 224
#MEASURE 3/4
2
#BPMCHANGE 232
1
#BPMCHANGE 240
2,
#BPMCHANGE 248
#MEASURE 4/4
1212,
#BPMCHANGE 256
121250
#BPMCHANGE 248
#SCROLL 1.03
00,
#SCROLL 1.06
#MEASURE 6/4
#BPMCHANGE 240
000000
#SCROLL 1.1
#BPMCHANGE 232
000000
#BPMCHANGE 224
000000
#BPMCHANGE 216
000000
#BPMCHANGE 208
000008
#BPMCHANGE 160
000000,
#MEASURE 4/4
#GOGOSTART
#BPMCHANGE 192
#SCROLL 1
3030010020200100,
#MEASURE 3/4
202002001010,
#MEASURE 4/4
4040020010100200,
#MEASURE 3/4
101002001010,
#MEASURE 4/4
3030010020200100,
#MEASURE 3/4
202001002020,
#MEASURE 4/4
3030010020200100,
#MEASURE 3/4
227008,
#GOGOEND
#MEASURE 4/4
1212,
#MEASURE 3/4
111010,
#MEASURE 4/4
2121,
#MEASURE 3/4
222040,
#MEASURE 4/4
11201020,
#MEASURE 3/4
111011,
#MEASURE 4/4
22102210,
#MEASURE 3/4
222040,
#MEASURE 4/4
11211021,
#MEASURE 3/4
111011,
#MEASURE 4/4
2020100022201010,
#MEASURE 3/4
222040,
#MEASURE 4/4
500000000000000000000008000000000000200200200000,
#MEASURE 3/4
111011,
#MEASURE 4/4
2020101022201010,
#MEASURE 3/4
222240,
#MEASURE 5/4
12221,
22122,
12700,
#MEASURE 6/4
008000,
#MEASURE 4/4
10201111,
20111020,
11111020,
#MEASURE 5/4
500000000000000000000000000000000000000000000008000000000000,
#MEASURE 4/4
7,
#MEASURE 5/8
00
#BPMCHANGE 177.8
00
#BPMCHANGE 182.95
8,
#MEASURE 1/64
#BARLINEOFF
#BPMCHANGE 71.2
,
,
,
#BPMCHANGE 20
#SCROLL 2.23
,
,
,
,
,
#BPMCHANGE 192
#BARLINEON
#GOGOSTART
#MEASURE 4/4
#SCROLL 1
3040020010100200,
#MEASURE 3/4
101002001000,
#MEASURE 4/4
3040020010100200,
#MEASURE 3/4
101002001000,
#MEASURE 4/4
3040020010100200,
#MEASURE 3/4
101002001000,
#MEASURE 4/4
3040020010100200,
#MEASURE 3/4
101002001000,
#MEASURE 4/4
3040020110100201,
#MEASURE 3/4
101002011000,
#MEASURE 4/4
3040020110100201,
#MEASURE 3/4
101002011000,
#MEASURE 4/4
3040020110100201,
#MEASURE 3/4
101002011000,
#MEASURE 4/4
3040020110100201,
#MEASURE 3/4
111040,
#GOGOEND
#SCROLL 1.5
34,
43,
34,
44,
34,
33,
43,
#MEASURE 4/4
40040078,
#MEASURE 3/4
#SCROLL 1.75
43,
43,
44,
#MEASURE 4/4
30040078,
#MEASURE 3/4
33,
44,
#MEASURE 2/4
4078,
#MEASURE 3/4
#SCROLL 2
43,
34,
34,
#SCROLL 2.25
9,
,
#MEASURE 2/4
9,
#SCROLL 1
#MEASURE 4/4
8,
#SCROLL 0.67
1120,
100101200100,
100100202200,
#MEASURE 3/4
700008,
#MEASURE 4/4
1120,
100101200100,
100100202200,
#MEASURE 3/4
#SCROLL 1
700008,
#GOGOSTART
#MEASURE 4/4
3040020110100201,
#MEASURE 3/4
101002011000,
#MEASURE 4/4
3040020110100201,
#MEASURE 3/4
101002011000,
#MEASURE 4/4
3040020110100201,
#MEASURE 3/4
101002011000,
#MEASURE 4/4
3040020110100201,
#MEASURE 3/4
111040,
#SCROLL 0.87
#MEASURE 4/4
#BPMCHANGE 220
11022022,
#MEASURE 3/4
011011,
#SCROLL 0.85
#MEASURE 4/4
#BPMCHANGE 225
02202201,
#MEASURE 3/4
102202,
#SCROLL 0.73
#MEASURE 4/4
#BPMCHANGE 260
20110220,
#SCROLL 0.67
#MEASURE 2/4
#BPMCHANGE 285
1102,
#SCROLL 0.61
#BPMCHANGE 310
2022,
#SCROLL 0.58
#BPMCHANGE 327.6
0110,
#SCROLL 0.53
#BPMCHANGE 360
1101,
1022,
#MEASURE 4/4
000600000000000000000000000000000008000000000000,
#GOGOEND
#END

COURSE:Normal
LEVEL:6
BALLOON:3,11,16,50,40,15,15,5,5
SCOREINIT:4300
SCOREDIFF:0
#START
#BPMCHANGE 128
11,
#BPMCHANGE 136
#MEASURE 3/4
101,
#BPMCHANGE 144
#MEASURE 4/4
2001,
#BPMCHANGE 152
#MEASURE 3/4
2,
#BPMCHANGE 160
#MEASURE 4/4
1
#BPMCHANGE 168
1,
#BPMCHANGE 176
#MEASURE 3/4
10
#BPMCHANGE 184
1,
#BPMCHANGE 198
#MEASURE 4/4
2
#BPMCHANGE 206
0
#BPMCHANGE 208
2
#BPMCHANGE 216
0,
#BPMCHANGE 224
#MEASURE 3/4
2
#BPMCHANGE 232
0
#BPMCHANGE 240
2,
#BPMCHANGE 248
#MEASURE 4/4
11,
#BPMCHANGE 256
115
#BPMCHANGE 248
#SCROLL 1.03
0,
#SCROLL 1.06
#MEASURE 6/4
#BPMCHANGE 240
000000
#SCROLL 1.1
#BPMCHANGE 232
000000
#BPMCHANGE 224
000000
#BPMCHANGE 216
000000
#BPMCHANGE 208
000008
#BPMCHANGE 160
000000,
#MEASURE 4/4
#GOGOSTART
#BPMCHANGE 192
#SCROLL 1
33002200,
#MEASURE 3/4
220010,
#MEASURE 4/4
44001100,
#MEASURE 3/4
110010,
#MEASURE 4/4
33002200,
#MEASURE 3/4
220020,
#MEASURE 4/4
33002200,
#MEASURE 3/4
227008,
#GOGOEND
#MEASURE 4/4
11,
#MEASURE 3/4
111,
#MEASURE 4/4
22,
#MEASURE 3/4
222040,
#MEASURE 4/4
11,
#MEASURE 3/4
111,
#MEASURE 4/4
22,
#MEASURE 3/4
222040,
#MEASURE 4/4
1110,
#MEASURE 3/4
111,
#MEASURE 4/4
2120,
#MEASURE 3/4
222040,
#MEASURE 4/4
500000000000000000000008000000000000000000000000,
#MEASURE 3/4
111,
#MEASURE 4/4
2121,
#MEASURE 3/4
222040,
#MEASURE 5/4
12221,
22122,
12700,
#MEASURE 6/4
008000,
#MEASURE 4/4
10201110,
20111020,
10111020,
#MEASURE 5/4
500000000000000000000000000000000000000000000008000000000000,
#MEASURE 4/4
7,
#MEASURE 5/8
00
#BPMCHANGE 177.8
00
#BPMCHANGE 182.95
8,
#MEASURE 1/64
#BARLINEOFF
#BPMCHANGE 71.2
,
,
,
#BPMCHANGE 20
#SCROLL 2.23
,
,
,
,
,
#BPMCHANGE 192
#BARLINEON
#GOGOSTART
#MEASURE 4/4
#SCROLL 1
33001100,
#MEASURE 3/4
110010,
#MEASURE 4/4
33001100,
#MEASURE 3/4
110010,
#MEASURE 4/4
33001100,
#MEASURE 3/4
110010,
#MEASURE 4/4
33001100,
#MEASURE 3/4
110010,
#MEASURE 4/4
33002200,
#MEASURE 3/4
110020,
#MEASURE 4/4
33002200,
#MEASURE 3/4
110020,
#MEASURE 4/4
33002200,
#MEASURE 3/4
110020,
#MEASURE 4/4
33002200,
#MEASURE 3/4
111040,
#GOGOEND
#SCROLL 1.5
7 ,
,
,
,
#MEASURE 4/4
0008,
#MEASURE 3/4
#SCROLL 1.75
7,
,
,
#MEASURE 4/4
,
#MEASURE 3/4
,
,
#MEASURE 2/4
08,
#MEASURE 3/4
#SCROLL 2
7,
,
008,
#SCROLL 2.25
9,
,
#MEASURE 2/4
9,
#SCROLL 1
#MEASURE 4/4
8,
#SCROLL 0.67
12,
1120,
1022,
#MEASURE 3/4
700008,
#MEASURE 4/4
12,
1120,
12,
#MEASURE 3/4
#SCROLL 1
700008,
#GOGOSTART
#MEASURE 4/4
33002200,
#MEASURE 3/4
110020,
#MEASURE 4/4
33002200,
#MEASURE 3/4
110020,
#MEASURE 4/4
33002200,
#MEASURE 3/4
110020,
#MEASURE 4/4
33002200,
#MEASURE 3/4
500000000000000000000008000000000000,
#SCROLL 0.87
#MEASURE 4/4
#BPMCHANGE 220
30040040,
#MEASURE 3/4
030030,
#SCROLL 0.85
#MEASURE 4/4
#BPMCHANGE 225
04004003,
#MEASURE 3/4
004004,
#SCROLL 0.73
#MEASURE 4/4
#BPMCHANGE 260
00300400,
#SCROLL 0.67
#MEASURE 2/4
#BPMCHANGE 285
5,
#SCROLL 0.61
#BPMCHANGE 310
,
#SCROLL 0.58
#BPMCHANGE 327.6
,
#SCROLL 0.53
#BPMCHANGE 360
,
000000000008000000000000,
#MEASURE 4/4
000600000000000000000000000000000008000000000000,
#GOGOEND
#END

COURSE:Easy
LEVEL:4
BALLOON:8,13,43,35,12,13
SCOREINIT:6000
SCOREDIFF:0
#START
#BPMCHANGE 128
1,
#BPMCHANGE 136
#MEASURE 3/4
1,
#BPMCHANGE 144
#MEASURE 4/4
1,
#BPMCHANGE 152
#MEASURE 3/4
1,
#BPMCHANGE 160
#MEASURE 4/4
1
#BPMCHANGE 168
0,
#BPMCHANGE 176
#MEASURE 3/4
10
#BPMCHANGE 184
0,
#BPMCHANGE 198
#MEASURE 4/4
1
#BPMCHANGE 206
0
#BPMCHANGE 208
0
#BPMCHANGE 216
0,
#BPMCHANGE 224
#MEASURE 3/4
1
#BPMCHANGE 232
0
#BPMCHANGE 240
0,
#BPMCHANGE 248
#MEASURE 4/4
11,
#BPMCHANGE 256
115
#BPMCHANGE 248
#SCROLL 1.03
0,
#SCROLL 1.06
#MEASURE 6/4
#BPMCHANGE 240
000000
#SCROLL 1.1
#BPMCHANGE 232
000000
#BPMCHANGE 224
000000
#BPMCHANGE 216
000000
#BPMCHANGE 208
000008
#BPMCHANGE 160
000000,
#MEASURE 4/4
#GOGOSTART
#BPMCHANGE 192
#SCROLL 1
32,
#MEASURE 3/4
201,
#MEASURE 4/4
41,
#MEASURE 3/4
101,
#MEASURE 4/4
32,
#MEASURE 3/4
202,
#MEASURE 4/4
32,
#MEASURE 3/4
2,
#GOGOEND
#MEASURE 4/4
11,
#MEASURE 3/4
101,
#MEASURE 4/4
11,
#MEASURE 3/4
224,
#MEASURE 4/4
11,
#MEASURE 3/4
101,
#MEASURE 4/4
11,
#MEASURE 3/4
224,
#MEASURE 4/4
11,
#MEASURE 3/4
101,
#MEASURE 4/4
11,
#MEASURE 3/4
224,
#MEASURE 4/4
500000000000000000000008000000000000000000000000,
#MEASURE 3/4
101,
#MEASURE 4/4
11,
#MEASURE 3/4
224,
#MEASURE 5/4
02020,
20202,
02700,
#MEASURE 6/4
008000,
#MEASURE 4/4
1211,
2112,
1112,
#MEASURE 5/4
500000000000000000000000000000000000000008000000000000000000,
#MEASURE 4/4
7,
#MEASURE 5/8
00
#BPMCHANGE 177.8
00
#BPMCHANGE 182.95
8,
#MEASURE 1/64
#BARLINEOFF
#BPMCHANGE 71.2
,
,
,
#BPMCHANGE 20
#SCROLL 2.23
,
,
,
,
,
#BPMCHANGE 192
#BARLINEON
#GOGOSTART
#MEASURE 4/4
#SCROLL 1
31,
#MEASURE 3/4
101,
#MEASURE 4/4
31,
#MEASURE 3/4
101,
#MEASURE 4/4
31,
#MEASURE 3/4
101,
#MEASURE 4/4
31,
#MEASURE 3/4
101,
#MEASURE 4/4
33001000,
#MEASURE 3/4
101,
#MEASURE 4/4
33001000,
#MEASURE 3/4
101,
#MEASURE 4/4
33001000,
#MEASURE 3/4
101,
#MEASURE 4/4
33001000,
#MEASURE 3/4
114,
#GOGOEND
#SCROLL 1.5
7 ,
,
,
,
#MEASURE 4/4
0008,
#MEASURE 3/4
#SCROLL 1.75
7,
,
,
#MEASURE 4/4
,
#MEASURE 3/4
,
,
#MEASURE 2/4
08,
#MEASURE 3/4
#SCROLL 2
7,
,
008,
#SCROLL 2.25
9,
,
#MEASURE 2/4
9,
#SCROLL 1
#MEASURE 4/4
8,
#SCROLL 0.67
12,
1120,
12,
#MEASURE 3/4
1,
#MEASURE 4/4
12,
1120,
12,
#MEASURE 3/4
#SCROLL 1
1,
#GOGOSTART
#MEASURE 4/4
33001000,
#MEASURE 3/4
101,
#MEASURE 4/4
33001000,
#MEASURE 3/4
101,
#MEASURE 4/4
33001000,
#MEASURE 3/4
101,
#MEASURE 4/4
33001000,
#MEASURE 3/4
101,
#SCROLL 0.87
#MEASURE 4/4
#BPMCHANGE 220
10020020,
#MEASURE 3/4
010010,
#SCROLL 0.85
#MEASURE 4/4
#BPMCHANGE 225
02002001,
#MEASURE 3/4
002002,
#SCROLL 0.73
#MEASURE 4/4
#BPMCHANGE 260
00100200,
#SCROLL 0.67
#MEASURE 2/4
#BPMCHANGE 285
5,
#SCROLL 0.61
#BPMCHANGE 310
,
#SCROLL 0.58
#BPMCHANGE 327.6
,
#SCROLL 0.53
#BPMCHANGE 360
,
000000000008000000000000,
#MEASURE 4/4
000600000000000000000000000000000008000000000000,
#GOGOEND
#END
