//TJADB Project
TITLE:Aka to Shiro Bara no Majo
TITLEJA:赤と白薔薇の魔女
SUBTITLE:--Dokuwaki feat. Rei Hatori
SUBTITLEJA:Dokuwaki
BPM:90
WAVE:Aka to Shiro Bara no Majo.ogg
OFFSET:-1.058
DEMOSTART:90.825

COURSE:Oni
LEVEL:10
SCOREINIT:910
SCOREDIFF:0
#START
#MEASURE 3/4
222122222122,
222122222122,
222122222122,
222122222122,
212122222122,
212122222122,
#BPMCHANGE 88.94
#SCROLL 1.01191814707
212122222122,
#BPMCHANGE 88
#SCROLL 1.02272727273
21
#BPMCHANGE 85
#SCROLL 1.05882352941
21
#BPMCHANGE 75
#SCROLL 1.2
22
#BPMCHANGE 63
#SCROLL 1.42857142857
22
#BPMCHANGE 56
#SCROLL 1.60714285714
21
#BPMCHANGE 63
#SCROLL 1.42857142857
2
#BPMCHANGE 68
#SCROLL 1.32352941176
2,
#MEASURE 4/4
#BPMCHANGE 170
#SCROLL 1
1221221000101222,
1221221000101222,
1221221002121222,
100200200100200200100000000200100200100202020200,
1221221002221222,
1221221002221222,
1221221002221222,
1221221002121222,
#MEASURE 3/4
#BPMCHANGE 226.73
#SCROLL 0.97031711727
,
#GOGOSTART
#MEASURE 4/4
#BPMCHANGE 220
#SCROLL 1
1111201110112011,
1111201110112011,
1111201110112011,
1111201210112011,
1111201110112011,
1111201110112011,
1111201120112012,
1011201210112012,
1111201110112011,
1111201110112012,
1111201110112011,
1111201210112012,
1111201110112011,
1111201110112012,
1111201120112012,
1011201210112000,
#GOGOEND
1020202010202220,
1020202010201022,
1020202010202220,
1020202010201022,
1020202010202220,
1020202010201022,
1020202010202220,
100200200200100200200200100200100200100202020200,
1000102210100010,
0010202210102220,
1000102210100010,
0010201210102210,
1000102210100010,
0010202210102220,
1000102210100010,
100200200200100200200200100200100200100202020200,
1000101022100010,
0011101022101212,
1000101022100010,
0010101022112212,
1000101022100010,
0011101022101212,
1000101022100010,
100200200200100200200200100200100200100202020200,
1010200011102000,
1210201000221020,
1010200011102000,
1210201000112020,
11211221,
1022201012102011,
1010201120102010,
100200200200100200200200100200100200100202020200,
1010200011102000,
1210201000221020,
1010200011102000,
1210201000112020,
11211221,
1022201012102011,
1011201110112010,
100200200200100200200200100200100200100202020200,
#GOGOSTART
1111111111112111,
1111111111112111,
1111111111112111,
1111111111112111,
1111211111112111,
1111211111112111,
1111211121112111,
2121212121212111,
2111111111112111,
2111111111112111,
2111111111112111,
2111111111112111,
2111211111112111,
2111211111112111,
2111211121112111,
2121212121212222,
#GOGOEND
10210120,
100000202020200000100000000000100000200000100200,
10210120,
100100202020200000100000000000100000200000100200,
10210120,
100000202020200000100000000000100000200000100200,
10210120,
100100202020200000100000000000100000000000100000,
#END

COURSE:Hard
LEVEL:8
SCOREINIT:1470
SCOREDIFF:0
#START
#MEASURE 3/4
202220202220,
202220202220,
202220202220,
202220202220,
202220202220,
202220202220,
#BPMCHANGE 88.94
#SCROLL 1.011918147065437
202220202220,
#BPMCHANGE 88
#SCROLL 1.022727272727273
20
#BPMCHANGE 85
#SCROLL 1.058823529411765
22
#BPMCHANGE 75
#SCROLL 1.2
20
#BPMCHANGE 63
#SCROLL 1.428571428571429
20
#BPMCHANGE 56
#SCROLL 1.607142857142857
22
#BPMCHANGE 63
#SCROLL 1.428571428571429
2
#BPMCHANGE 68
#SCROLL 1.323529411764706
0,
#MEASURE 4/4
#BPMCHANGE 170
#SCROLL 1
1001001000101110,
2002002000202220,
1001001000101110,
2002002000202220,
1001001000101110,
2002002000202220,
1001001000101110,
2002002000202220,
#MEASURE 3/4
#BPMCHANGE 226.73
#SCROLL 0.970317117276055
,
#GOGOSTART
#MEASURE 4/4
#BPMCHANGE 220
#SCROLL 1
1110200010102000,
1110200010102000,
1110200010102000,
1110201020102000,
1110200010102000,
1110200010102000,
1110200020102000,
21212120,
1110200010102000,
1110200010102000,
1110200010102000,
1110201020102000,
1110200010102000,
1110200010102000,
1110200020102000,
21212120,
#GOGOEND
12221222,
12221210,
12221222,
12221210,
12221222,
12221210,
12221222,
11212120,
1000101110100010,
01211120,
1000101110100010,
01211220,
1000101110100010,
01211120,
1000101110100010,
11212120,
1000101011100010,
01211120,
1000101011100010,
01211220,
1000101011100010,
01211120,
1000101011100010,
11212120,
1010200011102000,
11210210,
1010200011102000,
11210120,
11211221,
12211120,
11201120,
11212120,
1010200011102000,
11210210,
1010200011102000,
11210120,
11211221,
12211120,
11201120,
11212120,
#GOGOSTART
1110101010102000,
1110101010102000,
1110101010102000,
1110101010102000,
1110200010102000,
1110200010102000,
1110200011102000,
2220202010102000,
1110101010102000,
1110101010102000,
1110101010102000,
1110101010102000,
1110200010102000,
1110200010102000,
1110200011102000,
2220202010102000,
#GOGOEND
10210120,
1020201000102011,
10210120,
1020201000102011,
10210120,
1020201000102011,
10210120,
12210101,
#END

COURSE:Normal
LEVEL:7
SCOREINIT:1880
SCOREDIFF:0
#START
#MEASURE 3/4
202222,
202222,
202222,
202222,
202222,
202222,
#BPMCHANGE 88.94
#SCROLL 1.011918147065437
202222,
#BPMCHANGE 88
#SCROLL 1.022727272727273
20
#BPMCHANGE 85
#SCROLL 1.058823529411765
00
#BPMCHANGE 75
#SCROLL 1.2
20
#BPMCHANGE 63
#SCROLL 1.428571428571429
20
#BPMCHANGE 56
#SCROLL 1.607142857142857
00
#BPMCHANGE 63
#SCROLL 1.428571428571429
0
#BPMCHANGE 68
#SCROLL 1.323529411764706
0,
#MEASURE 4/4
#BPMCHANGE 170
#SCROLL 1
1001001000101000,
2002002000202000,
1001001000101000,
2002002000202000,
1001001000101000,
2002002000202000,
1001001000101000,
2002002000202000,
#BPMCHANGE 226.73
#SCROLL 0.970317117276055
#MEASURE 3/4
,
#GOGOSTART
#MEASURE 4/4
#BPMCHANGE 220
#SCROLL 1
10201120,
11201120,
10201120,
11212120,
10201120,
11201120,
10202120,
21212120,
10201120,
11201120,
10201120,
11212120,
10201120,
11201120,
10202120,
21212120,
#GOGOEND
10101022,
10101210,
10101022,
10101210,
10101022,
10101210,
10101022,
10111120,
10111101,
01011020,
10111101,
01012020,
10111101,
01011020,
10111101,
01011120,
10111101,
01011120,
10111101,
01011220,
10111101,
01011120,
10111101,
01011120,
10201120,
11210210,
10201120,
11210120,
10201220,
10201220,
11201120,
10111120,
10201120,
11210210,
10201120,
11210120,
10201220,
10201220,
11201120,
10111120,
#GOGOSTART
11111120,
11111120,
11111120,
11111120,
11201120,
11201120,
11201120,
22221120,
11111120,
11111120,
11111120,
11111120,
11201120,
11201120,
11201120,
22221120,
#GOGOEND
10210120,
10210121,
10210120,
10210121,
10210120,
10210121,
10210120,
10210101,
#END

COURSE:Easy
LEVEL:5
SCOREINIT:2940
SCOREDIFF:0
#START
#MEASURE 3/4
200202,
200202,
200202,
200202,
200202,
200202,
#BPMCHANGE 88.94
#SCROLL 1.011918147065437
200202,
#BPMCHANGE 88
#SCROLL 1.022727272727273
20
#BPMCHANGE 85
#SCROLL 1.058823529411765
00
#BPMCHANGE 75
#SCROLL 1.2
00
#BPMCHANGE 63
#SCROLL 1.428571428571429
20
#BPMCHANGE 56
#SCROLL 1.607142857142857
00
#BPMCHANGE 63
#SCROLL 1.428571428571429
0
#BPMCHANGE 68
#SCROLL 1.323529411764706
0,
#MEASURE 4/4
#BPMCHANGE 170
#SCROLL 1
1001001000000000,
2002002000000000,
1001001000000000,
2002002000000000,
1001001000000000,
2002002000000000,
1001001000000000,
2002002000000000,
#MEASURE 3/4
#BPMCHANGE 226.73
#SCROLL 0.970317117276055
,
#GOGOSTART
#MEASURE 4/4
#BPMCHANGE 220
#SCROLL 1
1110,
1110,
1110,
11101020,
1110,
1110,
1110,
11101020,
1110,
1110,
1110,
11101020,
1110,
1110,
1110,
11101020,
#GOGOEND
1112,
1110,
1112,
1110,
1112,
1110,
1112,
1110,
10101001,
01011000,
10101001,
01011000,
10101001,
01011000,
10101001,
01012000,
10001001,
01011000,
10001001,
01011000,
10001001,
01011000,
10001001,
01012000,
1112,
1202,
1112,
1202,
1112,
1112,
1112,
1120,
1112,
1202,
1112,
1202,
1112,
1112,
1112,
1120,
#GOGOSTART
10101110,
10101110,
10101110,
1110,
11101110,
1110,
11101110,
1110,
10101110,
10101110,
10101110,
1110,
11101110,
1110,
11101110,
1110,
#GOGOEND
10010100,
10010101,
10010100,
10010101,
10010100,
10010101,
10010100,
10010101,
#END
