//TJADB Project
TITLE:LECIEL GLISSANDO
TITLEJA:LECIEL GLISSANDO
SUBTITLE:--Yomii
SUBTITLEJA:よみぃ
BPM:250
WAVE:LECIEL GLISSANDO.ogg
OFFSET:-4.718
DEMOSTART:51.999 //Ignored
3 initial hidden barlines. //Shinuchi:
3760/2550/1900/1210

COURSE:Oni
LEVEL:10
BALLOON:6
SCOREINIT:440,1320
SCOREDIFF:113
#START
20220000,
20220000,
200000200200000200000220,
0, //4
#MEASURE 3/4
3,
#MEASURE 9/8
000202020,
#MEASURE 3/4
3,
#MEASURE 9/8
000202020,
#MEASURE 3/4
3,
#MEASURE 9/8
000202020,
#MEASURE 3/4
3,
#MEASURE 4/4
100200200211, //12
#MEASURE 3/4
#GOGOSTART
312112,
#MEASURE 9/8
111212121,
#MEASURE 3/4
101020111020,
#MEASURE 5/4
20102211101010102020,
#MEASURE 4/4
1110201000102010,
1010201020112000,
20030404,
#GOGOEND
101010100220100200100200, //20
10020122,
10020211,
10010122,
0212,
20020010,
0, //26
30030040,
03003003,
00300400,
00012222,
30030040,
03004004,
00300300,
1000222010201000, //34
100000000000200000200200100100200200100010001000,
12102112,
100100100000000000100000200000001000000010000000,
2010001120001020,
1000001020002220,
1020100020001110,
1000111020001110,
2010101020002220, //42
1000101020111020,
10201022,
1000001020001011,
2000100020002220,
10211010,
1020100020111020,
30230260,
000000000000000000000000000000000008000000000000, //50
#GOGOSTART
1000200011102010,
0011202010102020,
110200200110100200100000,
2220102030040040,
1011201000101020,
1011201000102020,
1110203000300040,
100010001000100010001000400000000400000000400000,
1000201110201020,
1022102000211020,
1110104000403000,
3040001020121020, //62
#GOGOEND
10012012,
11202020,
1000001020001110,
2010102011102010,
10070008,
1022102022201010,
20120120,
000000000000000000000000500000000000000008000000, //70
12,
0000000020002222,
12,
00002022,
1000222220000000,
00002022,
10002002,
02022022, //78
100000101010200000200200,
000200101010200000200200,
100000101010200000200200,
000200101010200000200200,
1000111120002020,
0020111120002220,
1000101020222220,
1020002022221000, //86
#MEASURE 3/4
33,
43,
#MEASURE 4/4
20220222,
0222,
#MEASURE 5/4
3004004000,
#MEASURE 4/4
10110105,
#MEASURE 2/4
000000000008000000000000, //93
#MEASURE 4/4
30030040,
03000000,
100100100100100100100100100010001000100100100100,
100000000100000000100200200020002000200200200200,
500000000000000000000000000000000000000008000000,
600000000000000000000000000000000000000008000000,
0000000022122212,
2211112222111122, //101
10001000
#GOGOSTART
11102010,
0011202010112020,
101000200000200000101000100000200200100000100000,
2220102010121020,
1010221020101120,
1022101000112020,
1110203000300040,
100010001000100010001000400000000400000000400000, //109
1110202210111020,
1010202122112210,
1220204000400060,
000000000000000008000000200020001000100010001000,
#GOGOEND
10012012,
1021100020002000,
1011112222112211,
1020100020102110, //117
#MEASURE 3/4
#GOGOSTART
112112,
#MEASURE 9/8
111212121,
#MEASURE 3/4
101020111020,
#MEASURE 9/8
101010201022102010,
#MEASURE 3/4
101020101021,
#MEASURE 9/8
101010211020102010,
#MEASURE 3/4
101120101020,
#MEASURE 4/4
1110104010401040, //125
14000000,
#GOGOEND
0,
0,
0, //129
#END

COURSE:Hard
LEVEL:7
BALLOON:14,8,8
SCOREINIT:500,2190
SCOREDIFF:133
#START
20220000,
20220000,
20220202,
0, //4
#MEASURE 3/4
3,
#MEASURE 9/8
000202020,
#MEASURE 3/4
3,
#MEASURE 9/8
000202020,
#MEASURE 3/4
3,
#MEASURE 9/8
000202020,
#MEASURE 3/4
3,
#MEASURE 4/4
1222, //12
#MEASURE 3/4
#GOGOSTART
102102,
#MEASURE 9/8
101202020,
#MEASURE 3/4
102102,
#MEASURE 5/4
2121101122,
#MEASURE 4/4
10210101,
01202020,
10030404,
#GOGOEND
00020222, //20
10020222,
10020222,
10010222,
0212,
20020010,
0, //26
30030040,
03003003,
00300400,
0,
30030040,
03004004,
00300300,
0, //34
12,
10112022,
100211,
20021020,
12,
10102011,
10112011,
21102000, //42
10110111,
1212,
10002011,
2122,
10111020,
11102110,
30030060,
000000000000000000000000000000000008000000000000, //50
#GOGOSTART
10201121,
01102222,
10210210,
1020001010020020,
10110222,
10110222,
10230304,
0000000020020020,
10210201,
02010211,
30340430,
34012120, //62
#GOGOEND
10012012,
12102020,
10012012,
12122020,
10070000,
0008,
20020020,
0, //70
12,
00002022,
12,
02,
12,
00002022,
12,
02, //78
10102022,
02002022,
10102022,
02002022,
10102022,
02002022,
10102022,
12022210, //86
#MEASURE 3/4
33,
43,
#MEASURE 4/4
20220222,
0222,
#MEASURE 5/4
3004004000,
#MEASURE 4/4
10110105,
#MEASURE 2/4
000000000008000000000000, //93
#MEASURE 4/4
30030040,
03000000,
70000008,
70000008,
500000000000000000000000000000000000000008000000,
600000000000000000000000000000000000000008000000,
0,
0, //101
1010
#GOGOSTART
1121,
01102222,
10210210,
1020001010020020,
11210222,
11210222,
11230304,
0000000040040040, //109
10210102,
00212121,
30340406,
000000000000000000000008000000000000000000000000,
#GOGOEND
10012010,
1222,
10102210,
10012022, //117
#MEASURE 3/4
#GOGOSTART
102102,
#MEASURE 9/8
101202020,
#MEASURE 3/4
102102,
#MEASURE 9/8
101202020,
#MEASURE 3/4
102102,
#MEASURE 9/8
101202020,
#MEASURE 3/4
112112,
#MEASURE 4/4
11120202, //125
04000000,
#GOGOEND
0,
0,
0, //129
#END

COURSE:Normal
LEVEL:6
BALLOON:9,6,6
SCOREINIT:510,3110
SCOREDIFF:143
#START
20220000,
20220000,
20220202,
0, //4
#MEASURE 3/4
3,
#MEASURE 9/8
0,
#MEASURE 3/4
3,
#MEASURE 9/8
0,
#MEASURE 3/4
3,
#MEASURE 9/8
0,
#MEASURE 3/4
3,
#MEASURE 4/4
1222, //12
#MEASURE 3/4
#GOGOSTART
101101,
#MEASURE 9/8
101102020,
#MEASURE 3/4
101102,
#MEASURE 5/4
2011102220,
#MEASURE 4/4
10110101,
0222,
10030404,
#GOGOEND
0, //20
1,
1,
1,
0,
20020020,
0, //26
30030040,
03003003,
00300400,
0,
30030040,
03004004,
00300300,
0, //34
12,
11102000,
12,
11101000,
12,
11102000,
12,
11102000, //42
10110110,
1012,
11,
1122,
10010010,
00101110,
30030060,
000000000000000000000000000000000008000000000000, //50
#GOGOSTART
10102101,
01102022,
10110110,
22000000,
10110020,
10110020,
30330304,
0,
10110201,
02010210,
30330440,
33002010, //62
#GOGOEND
10010010,
0222,
12,
20020020,
10070000,
0008,
20020020,
0, //70
12,
02,
12,
02,
12,
02,
12,
02, //78
10002002,
02002000,
10002002,
02002000,
10002002,
02002000,
10002022,
02020220, //86
#MEASURE 3/4
33,
43,
#MEASURE 4/4
0,
0,
#MEASURE 5/4
3004004000,
#MEASURE 4/4
0,
#MEASURE 2/4
0, //93
#MEASURE 4/4
30030040,
03000000,
70000008,
70000008,
500000000000000000000000000000000000000008000000,
600000000000000000000000000000000000000008000000,
0,
0, //101
1000
#GOGOSTART
2101,
01102022,
10110110,
22000000,
10110020,
10110020,
30330304,
000444, //109
10110102,
0222,
30330406,
000000000000000000000008000000000000000000000000,
#GOGOEND
10010010,
0222,
12,
10020020, //117
#MEASURE 3/4
#GOGOSTART
101101,
#MEASURE 9/8
101102020,
#MEASURE 3/4
101101,
#MEASURE 9/8
101102020,
#MEASURE 3/4
101101,
#MEASURE 9/8
101102020,
#MEASURE 3/4
102102,
#MEASURE 4/4
10210202, //125
04000000,
#GOGOEND
0,
0,
0, //129
#END

COURSE:Easy
LEVEL:5
BALLOON:7,4,4
SCOREINIT:450,4880
SCOREDIFF:133
#START
2,
2,
20020202,
0, //4
#MEASURE 3/4
3,
#MEASURE 9/8
0,
#MEASURE 3/4
3,
#MEASURE 9/8
0,
#MEASURE 3/4
3,
#MEASURE 9/8
0,
#MEASURE 3/4
3,
#MEASURE 4/4
0222, //12
#MEASURE 3/4
#GOGOSTART
11,
#MEASURE 9/8
110,
#MEASURE 3/4
11,
#MEASURE 5/4
11120,
#MEASURE 4/4
10010101,
0220,
10030404,
#GOGOEND
0, //20
1,
1,
1,
0,
20020020,
0, //26
30030030,
03003003,
00300400,
0,
40040040,
04004004,
00400300,
0, //34
11,
1110,
12,
1110,
11,
1110,
12,
12, //42
1001,
11,
11,
1011,
5,
000000000000000000000008000000000000000000000000,
30030060,
000000000000000000000000000008000000000000000000, //50
#GOGOSTART
10001001,
0022,
10010010,
11000000,
10010000,
10010000,
30030303,
0,
10010001,
00010000,
30030040,
11000000, //62
#GOGOEND
10010010,
02,
1,
20020020,
20070000,
0008,
20020020,
0, //70
02,
02,
02,
02,
02,
02,
02,
02, //78
12,
02,
12,
02,
12,
02,
12,
0022, //86
#MEASURE 3/4
33,
33,
#MEASURE 4/4
0,
0,
#MEASURE 5/4
4004004000,
#MEASURE 4/4
0,
#MEASURE 2/4
0, //93
#MEASURE 4/4
30030030,
03000000,
70000008,
70000008,
500000000000000000000000000000000000000008000000,
600000000000000000000000000000000000000008000000,
0,
0, //101
1000
#GOGOSTART
1001,
0022,
10010010,
11000000,
10010000,
10010000,
30030303,
0, //109
10010002,
0220,
30040406,
000000000000000000000008000000000000000000000000,
#GOGOEND
10010010,
02,
1,
20020020, //117
#MEASURE 3/4
#GOGOSTART
1,
#MEASURE 9/8
5,
#MEASURE 3/4
0,
#MEASURE 9/8
000000000000000000000000000000000008000000000000000000,
#MEASURE 3/4
11,
#MEASURE 9/8
100202020,
#MEASURE 3/4
11,
#MEASURE 4/4
10040404, //125
04000000,
#GOGOEND
0,
0,
0, //129
#END
