//TJADB Project
TITLE:Connected World
SUBTITLE:--somunia
BPM:160
WAVE:Connected World.ogg
OFFSET:-0.003
DEMOSTART:36.002

COURSE:Oni
LEVEL:8
BALLOON:12,9,12,9
SCOREINIT:1360
SCOREDIFF:
#START
1020102010010010,
1020201020020020,
1020102010010010,
1020201020020020,
1020102010010010,
1020201020020020,
1020102010020020,
00402222,
1000200020221020,
10201222,
12201222,
1000202210202020,
1000200020221020,
10201221,
1022200010222020,
1110201110102010,
5,
000000000000000000000000000000000000000008000000,
7008,
7081,
1002102010221020,
1002102010221020,
1110111011101110,
200000200000200200200000202020200200000000000000,
#GOGOSTART
3022201020002220,
1020102220203000,
1022201020001120,
1020100022202222,
1022201020002220,
1020102220203000,
1110200010221020,
1110200030304040,
3022201020002220,
1020102220203000,
1022201020001120,
2020100022202222,
1022201020002220,
1020102220203000,
1000222020201020,
1011200030304040,
#GOGOEND
1020102010010010,
1020201020020020,
1020102010010010,
1020201020020020,
1020102010010010,
1020201020020020,
1020102030030030,
10402222,
1020102210010010,
1220201020120120,
1020102210010010,
1022201020020020,
1020102210010010,
1220201020120120,
1020102210010010,
10402222,
1000200020221020,
10201222,
12201222,
1000202010222020,
1000200020221020,
10201221,
1022200010222020,
1110201110102010,
5,
000000000000000000000000000000000000000008000000,
7008,
7081,
1002102010221020,
1002102010221020,
1122112211112222,
100000100000200200200000202020200200000000000000,
#GOGOSTART
3022102011102010,
1020112020103000,
1022102011102010,
0020102011202222,
1022102011102010,
1020112020203000,
1022102011102010,
1020112030304040,
3022102011102010,
1020112020103000,
1022102011102010,
0020102011202222,
1022102011102010,
1020112020203000,
1022102011102010,
1020112030304040,
#GOGOEND
12220212,
02211121,
12220212,
01221211,
12220212,
02211121,
0010201210102020,
1220102030304040,
#END

COURSE:Hard
LEVEL:5
BALLOON:10,7,10,10,10,7,12,12,30
SCOREINIT:2220
SCOREDIFF:
#START
1110,
1000100020020020,
1110,
2000200020020020,
1110,
1000100020020020,
1000100010020020,
00402222,
1220,
1210,
12201220,
10221220,
1220,
1210,
12201220,
10221022,
5,
000008,
7000000000080000,
7000000800001000,
1001102010201020,
1001102010201020,
6,
000000000008000000000000,
#GOGOSTART
30212022,
12102220,
10212011,
2020100020202220,
10212022,
12102130,
10212210,
7000000000080000,
30212022,
12102220,
10212011,
2020100020202220,
10212022,
12102130,
10212210,
7000000000080000,
#GOGOEND
1000100010010010,
1010100020020020,
1000100010010010,
2000200020020020,
1000100010010010,
1010100020020020,
1000100030030030,
10402222,
1000102010010010,
1010100020020020,
1000102010010010,
2000202020020020,
1000102010010010,
1010100020020020,
1000102010010010,
10402222,
1220,
1210,
12201220,
10221220,
1220,
1210,
12201220,
10221022,
5,
000008,
7000000000080000,
7000000800001000,
1002102010201010,
1002102010201010,
6,
000000000008000000000000,
#GOGOSTART
30122012,
12102220,
10122011,
2020100020202220,
10122012,
12102110,
10122217,
1200000000080000,
30122012,
12102220,
10122011,
2020100020202220,
10122012,
12102110,
10112217,
1200000000080000,
#GOGOEND
10220212,
02211020,
10220212,
01221210,
10220212,
02211020,
7,
00000008,
#END

COURSE:Normal
LEVEL:5
BALLOON:10,7,10,10,10,7,12,12,30
SCOREINIT:2220
SCOREDIFF:
#START
1110,
1000100020020020,
1110,
2000200020020020,
1110,
1000100020020020,
1000100010020020,
00402222,
1220,
1210,
12201220,
10221220,
1220,
1210,
12201220,
10221022,
5,
000008,
7000000000080000,
7000000800001000,
1001102010201020,
1001102010201020,
6,
000000000008000000000000,
#GOGOSTART
30212022,
12102220,
10212011,
2020100020202220,
10212022,
12102130,
10212210,
7000000000080000,
30212022,
12102220,
10212011,
2020100020202220,
10212022,
12102130,
10212210,
7000000000080000,
#GOGOEND
1000100010010010,
1010100020020020,
1000100010010010,
2000200020020020,
1000100010010010,
1010100020020020,
1000100030030030,
10402222,
1000102010010010,
1010100020020020,
1000102010010010,
2000202020020020,
1000102010010010,
1010100020020020,
1000102010010010,
10402222,
1220,
1210,
12201220,
10221220,
1220,
1210,
12201220,
10221022,
5,
000008,
7000000000080000,
7000000800001000,
1002102010201010,
1002102010201010,
6,
000000000008000000000000,
#GOGOSTART
30122012,
12102220,
10122011,
2020100020202220,
10122012,
12102110,
10122217,
1200000000080000,
30122012,
12102220,
10122011,
2020100020202220,
10122012,
12102110,
10112217,
1200000000080000,
#GOGOEND
10220212,
02211020,
10220212,
01221210,
10220212,
02211020,
7,
00000008,
#END

COURSE:Easy
LEVEL:4
BALLOON:4,4,4,4,4,4,5,5,16
SCOREINIT:5080
SCOREDIFF:
#START
1,
1010,
1,
2020,
1,
1010,
1020,
0422,
0220,
2220,
0202,
2210,
0220,
2220,
0202,
2210,
5,
000000080000,
70000800,
70080000,
1110,
1111,
6,
000000000008000000000000,
#GOGOSTART
3020,
1120,
1021,
0120,
1020,
1120,
1020,
70000800,
3020,
1120,
1021,
0120,
1020,
1120,
1021,
70000800,
#GOGOEND
1010,
1110,
1010,
2220,
1010,
1110,
1010,
0422,
1010,
1120,
1010,
2220,
1010,
1120,
1010,
0422,
0220,
2220,
0202,
2210,
0220,
2220,
0202,
2210,
5,
000000080000,
70000800,
70080000,
1110,
1111,
6,
000000000008000000000000,
#GOGOSTART
3022,
1120,
1021,
0120,
1022,
1120,
10002017,
00000800,
3022,
1120,
1021,
0120,
1022,
1120,
10002017,
00000800,
#GOGOEND
10020000,
02002000,
10020000,
02002000,
10020000,
02002000,
7,
00000008,
#END
