//TJADB Project
TITLE:PaPaPa Love ~Muscle Joy Theme~
TITLEJA:PaPaPa Love ~マッスル喜びのテーマ~
SUBTITLE:--Akitaka Toyama feat. Crab Prince/Muscle March
BPM:169
WAVE:PaPaPa Love Muscle Joy Theme.ogg
OFFSET:-1.623
DEMOSTART:58.398

COURSE:Oni
LEVEL:8
BALLOON:120
SCOREINIT:700
SCOREDIFF:180
#START
10221020,
10210120,
10221220,
10210222,
10221020,
22020210,
1022201000222010,
0100,
1000201000201110,
1000201000201110,
1000201000201110,
1000201000201110,
1000201000201121,
1000201000201121,
1000201000201121,
2000201000201121,
1022201000201121,
1022201000201121,
1020102210202000,
1020102210202000,
1022201000201121,
1022201000201121,
1020102210202000,
1020102210202000,
1022201022201022,
1022201022201020,
1020102011221000,
1020102011221000,
1022201000201121,
1022201000201121,
1020102210202020,
1020102210202000,
#BPMCHANGE 168
7,
#BPMCHANGE 169
,
,
,
,
,
0800000000000000,
#BPMCHANGE 170.02
1000201000202220,//40
#GOGOSTART
#BPMCHANGE 169
1110201110202011,
1010201000122220,
1022102210221022,
1010001000222220,
1110201110202011,
1010201000122220,
1022102210221022,
1110001000222220,
1110201110202011,
1010201000122220,
1022102210221022,
1010001000222220,
1110201110202000,
1222222000222020,
30232202,
1111200021112000,
30221020,
10210120,
10221220,
10210222,
10221020,
22020210,
1022201000222010,
0100,
#GOGOEND
#END

COURSE:Hard
LEVEL:6
BALLOON:65
#START
10221020,
12010000,
10221020,
10210000,
10221020,
22020000,
10210221,
0100,
10210220,
10210000,
10210220,
10210000,
10210211,
10210000,
10210211,
10210000,
1022201000202000,
1022201000202000,
1000201000222000,
10210000,
1022201000202000,
1022201000202000,
1000201000222000,
10210020,
1022201000201000,
1022201000201000,
1000201000222000,
10210000,
1022201000201000,
1022201000201000,
1000201000222000,
10210010,
9,
,
,
,
09,
,
8,
10210440,//40
#GOGOSTART
1110101110002000,
10210020,
1022202020222020,
11000000,
1110101110002000,
10210020,
1022202020222020,
11000000,
1110101110002000,
10210020,
1022202220222020,
11000000,
1110101110102000,
2220222022202000,
30030000,
1110100011101000,
30221020,
12010220,
10221020,
10210220,
10221020,
22020220,
10210221,
0100,//64
#GOGOEND
,
,
#END

COURSE:Normal
LEVEL:6
BALLOON:25,25
#START
#MEASURE 4/4
10022000,
22020000,
1212,
1,
10022000,
22020000,
10220022,
0,
10110000,
10110000,
10110000,
10110000,
10110020,
10110000,
10110020,
10110000,
11110000,
11110000,
10220000,
10220000,
11110000,
11110000,
10220000,
10220000,
22220000,
22220000,
10110000,
10110000,
11110020,
11110000,
10220020,
10220000,
9,
0,
09,
8,
9,
0,
09,
8,//40
#GOGOSTART
11111000,
10220000,
1212,
11000000,
11111000,
10220000,
1212,
11000000,
11111020,
10220000,
1212,
11000000,
11111020,
22220000,
30030000,
1212,
30022000,
22020000,
1212,
1,
10022000,
22020000,
10220022,
0300,//64
#GOGOEND
,
,
#END

COURSE:Easy
LEVEL:4
BALLOON:18,18
#START
#MEASURE 4/4
11,
10010000,
1110,
1110,
11,
20020000,
10010001,
0,
10010000,
10010000,
10010000,
10010000,
20020000,
20020000,
20020000,
20020000,
1110,
1110,
10010000,
10010000,
1110,
1110,
10010000,
10010000,
1111,
1110,
10020000,
10020000,
1110,
1110,
20020000,
20020000,
9,
0,
09,
8,
9,
0,
09,
8,//40
#GOGOSTART
1111,
10020000,
11,
1,
1111,
10020000,
11,
1,
1111,
10020000,
11,
1,
2222,
20010000,
33,
33,
31,
10010000,
1110,
1110,
11,
20020000,
10010001,
,//64
#GOGOEND
,
,
#END
