//TJADB Project
TITLE:Shining 65
TITLEJA:シャイニング65
SUBTITLE:--Yoshihito Yano & Yuuji Masubuchi
BPM:202
WAVE:Shining 65.ogg
OFFSET:-4.879
DEMOSTART:26.268

COURSE:Oni
LEVEL:7
SCOREINIT:510
SCOREDIFF:130
#START
00050000,
000000080000111000100000,
30112110,
11211022,
10211220,
3,
10112110,
11211020,
11111112,
10210210,
30112110,
11211022,
10211220,
10221121,
10112110,
11211020,
#GOGOSTART
10101012,
1000200020101110,
10101120,
1010201020001110,
2121,
20101210,
30301120,
1020001020001110,
2121,
1000201000201110,
12212012,
2010200011101110,
#GOGOEND
40112110,
11211022,
10211220,
3,
10112110,
11211020,
11111112,
10210210,
30112110,
11211022,
10211220,
1000102000002011,
10112110,
11211020,
#GOGOSTART
12012012,
01201210,
30301120,
1020001020001110,
2121,
20101210,
30302210,
1020001020001110,
2121,
20112120,
30301120,
01121112,
#GOGOEND
#BPMCHANGE 201.2
12,
#BPMCHANGE 202
22,
10112000,
11010120,
10112000,
22,
#BPMCHANGE 202.89
#SCROLL 0.99
10112000,
#BPMCHANGE 201.91
#SCROLL 1
11010120,
#BPMCHANGE 202
10112010,
10110110,
10112010,
10200120,
10112010,
10110110,
10112010,
10200120,
,
#GOGOSTART
30301120,
1020001020001110,
22102210,
22101210,
30301120,
1020001020001110,
22102210,
22101210,
3311,
30301110,
3311,
30301110,
30304440,
30301110,
3000300011101000,
10210210,
30210011,
1020100011111010,
20120011,
100200100000101010101010,
10011123,
#GOGOEND
#END

COURSE:Hard
LEVEL:6
STYLE:Single
BALLOON:7
SCOREINIT:500
SCOREDIFF:140
#START
00050000,
0000800011101000,
10110110,
11011022,
00100200,
3,
10110110,
11011020,
10101210,
10210210,
10110110,
11011022,
00100200,
3,
10110110,
11011020,
#GOGOSTART
10101012,
10102110,
3300,
1020001020001110,
0121,
00101210,
3300,
1020001020001110,
0121,
10210210,
11021011,
05000080,
#GOGOEND
10110110,
22011022,
00100200,
3,
10110110,
22011020,
11111112,
10210210,
30110110,
22011022,
00100200,
3000000000001011,
10110110,
22011020,
#GOGOSTART
9,
9800,
3300,
1020001020001110,
0121,
20101210,
3300,
1020001020001110,
0121,
20102120,
3300,
00101112,
#GOGOEND
12,
22,
10112000,
10010020,
10112000,
22,
10112000,
10010020,
10112000,
10010010,
10112000,
00100120,
10112000,
10010010,
10112000,
10200120,
,
#GOGOSTART
30301120,
1020001020001110,
00102210,
22101210,
30301120,
1020001020001110,
00102210,
22101210,
3311,
30301110,
3311,
30301110,
30301210,
30301110,
3344,
30110010,
30121010,
12101110,
30121010,
12500000,
80001111,
#GOGOEND
,
,
,
#END
STYLE:Double
BALLOON:7
SCOREINIT:288
SCOREDIFF:84
#START P1
00050000,
0000800011101000,
10110110,
11011022,
00100200,
1000000000000011,
10110110,
11011020,
10101210,
10210210,
10110110,
11011022,
00100200,
5008,
10110110,
11011020,
#GOGOSTART
10101012,
10102110,
1100,
1020001020001110,
0121,
20101210,
00001120,
1020001020001110,
00220022,
20210210,
11021011,
05000080,
#GOGOEND
10110110,
22011022,
00100200,
1,
10110110,
22011020,
11111112,
10210210,
10110110,
22011022,
00100200,
1000000000001011,
10110110,
22011020,
#GOGOSTART
7,
8,
00001120,
1020001020001110,
00220220,
00101210,
1100,
1020001020001110,
0121,
10102120,
1100,
00101112,
#GOGOEND
12,
22,
10112000,
10010020,
10112000,
22,
10112000,
10010020,
10112000,
10010010,
10112000,
00100120,
10112000,
10010010,
10112000,
10200120,
,
#GOGOSTART
10101120,
1020001020001110,
00102210,
11201210,
10101120,
1020001020001110,
00102210,
22101210,
1111,
10101110,
1111,
10101110,
30301210,
30301110,
3322,
30110010,
10121010,
12101110,
10121010,
12500000,
80001111,
#GOGOEND
,
,
,
#END
BALLOON:7
SCOREINIT:288
SCOREDIFF:84
#START P2
00050000,
0000800011101000,
10110110,
11011022,
00100200,
5008,
10110110,
11011020,
10101210,
10210210,
10110110,
11011022,
00100200,
1000000000000011,
10110110,
11011020,
#GOGOSTART
10101012,
10102110,
00001120,
1020001020001110,
00220022,
20101210,
1100,
1020001020001110,
0121,
20210210,
11021011,
05000080,
#GOGOEND
10110110,
22011022,
00100200,
1,
10110110,
22011020,
11111112,
10210210,
10110110,
22011022,
00100200,
1000000000001011,
10110110,
22011020,
#GOGOSTART
7,
8,
1100,
1020001020001110,
0121,
20101210,
00001120,
1020001020001110,
00220022,
00102120,
1100,
00101112,
#GOGOEND
12,
22,
10112000,
10010020,
10112000,
22,
10112000,
10010020,
10112000,
10010010,
10112000,
00100120,
10112000,
10010010,
10112000,
10200120,
,
#GOGOSTART
10101120,
1020001020001110,
00102210,
11201210,
10101120,
1020001020001110,
00102210,
22101210,
1111,
10101110,
1111,
10101110,
30301210,
30301110,
3322,
30110010,
10121010,
12101110,
10121010,
12500000,
80001111,
#GOGOEND
,
,
,
#END

COURSE:Normal
LEVEL:5
BALLOON:6
SCOREINIT:650
SCOREDIFF:150
#START
00050000,
0800,
00101100,
10110010,
00100200,
3,
00101100,
10110010,
10101110,
20020020,
00101100,
10110010,
00100200,
3,
00101100,
10110020,
#GOGOSTART
10101011,
1110,
3300,
10101011,
0101,
0121,
3300,
10101011,
0202,
10010010,
10001011,
0500,
#GOGOEND
80101100,
10110010,
00100200,
3,
00101100,
10110010,
10101110,
20020020,
00101100,
10110010,
00100200,
30000022,
00101100,
10110010,
#GOGOSTART
9,
98,
3300,
10101011,
0101,
0121,
3300,
10101011,
0202,
0121,
3300,
1111,
#GOGOEND
22,
22,
1120,
22,
1120,
22,
1120,
22,
1120,
1120,
1120,
1102,
1120,
1120,
1120,
1104,
,
#GOGOSTART
3300,
10101011,
0101,
0121,
3300,
10101011,
0202,
0121,
3300,
3300,
3300,
3300,
3300,
3300,
3300,
10010010,
10020010,
02001010,
10020010,
05000000,
80001111,
#GOGOEND
,
,
,
#END

COURSE:Easy
LEVEL:5
BALLOON:6
SCOREINIT:520
SCOREDIFF:130
#START
00050000,
0800,
0110,
1110,
12,
3,
0110,
1110,
3,
20020020,
0110,
1110,
12,
5008,
0110,
1110,
#GOGOSTART
1111,
1110,
3300,
1011,
0202,
0110,
3300,
1011,
0101,
11,
31,
1500,
#GOGOEND
8110,
1110,
12,
3,
0110,
1110,
1,
20020020,
0110,
1110,
12,
3,
0110,
1110,
#GOGOSTART
9,
9800,
3300,
1011,
0101,
0110,
3300,
1011,
0202,
0220,
3300,
1111,
#GOGOEND
1,
22,
1,
22,
1,
22,
1,
22,
1120,
12,
1120,
12,
1120,
12,
1120,
1004,
,
#GOGOSTART
3300,
1011,
0101,
0110,
3300,
1011,
0202,
0220,
1100,
3300,
1100,
3300,
3300,
3300,
3300,
10010000,
30010010,
05000080,
10010010,
05000000,
80001111,
#GOGOEND
,
,
,
#END
