//TJADB Project
TITLE:Oshiri no Yama wa Everest
TITLEJA:おしりの山はエベレスト
SUBTITLE:--Oshiri Kajiri Mushi/Minna no Uta
SUBTITLEJA:「NHKみんなのうた」より
BPM:234
WAVE:Oshiri no Yama wa Everest.ogg
OFFSET:-3.200
DEMOSTART:92.430

COURSE:Edit
LEVEL:9
BALLOON:5,5,5,10,5,5,5,10,5,5,5,5,5,5,5,10
SCOREINIT:410
SCOREDIFF:88
#START
#SCROLL 0.5
#BARLINEOFF
000000000000100000000000100000000000200000200000,
#MEASURE 8/4
#BARLINEON
100000100000200000200000100000100000200000200000
100000100000100000200000200000200000100000100000,
200000200000100000100000200000200000100000100000
200000200000200000100000100000100000200000200000,
100000100000200000200000100000100000200000200000
100000100000100000200000200000200000100000100000,
200000200000100000100000200000200000100000100000
200000200000100000200000100000000000000000000000,
100000100000200000200000100000100000200000200000
100000100000100000100000200000200000100000100000,
100000100000200000200000100000100000100000100000
700000000000000000000000800000000000000000000000,
100000100000200000200000100000100000100000200000
200000200000100000100000200000200000100000100000,
100000200000200000200000100000100000200000200000
700000000000000000000000800000000000000000000000,
100000100000200000200000100000100000200000200000
100000100000100000100000200000200000100000100000,
100000100000200000200000100000100000100000100000
700000000000000000000000800000000000000000000000,
100000100000200000200000100000100000100000200000
200000200000100000100000200000200000100000100000,
700000000000000000000000000000000000000000000000
800000000000000000000000000000000000100000100000,
#GOGOSTART
100000200000200000200000200000100000100000100000
200000200000200000200000100000100000100000200000,
200000200000200000100000100000100000200000200000
200000200000100000100000100000200000200000200000,
200000100000100000100000200000200000200000200000
100000100000100000200000200000200000200000100000,
100000200000200000200000100000100000200000200000
#GOGOEND
100000000000000000000000000000000000200000200000,
100000100000200000200000100000100000200000200000
100000100000200000200000100000100000200000200000,
100000100000100000200000200000200000100000100000
100000200000200000200000100000000000000000000000,
100000100000200000200000100000100000200000200000
100000100000100000100000200000200000100000100000,
100000100000200000200000100000100000100000100000
700000000000000000000000800000000000000000000000,
100000100000200000200000100000100000100000200000
200000200000100000100000200000200000100000100000,
100000200000200000200000100000100000200000200000
700000000000000000000000800000000000000000000000,
100000100000200000200000100000100000200000200000
100000100000100000100000200000200000100000100000,
100000100000200000200000100000100000100000100000
700000000000000000000000800000000000000000000000,
100000100000200000200000100000100000100000200000
200000200000100000100000200000200000100000100000,
700000000000000000000000000000000000000000000000
800000000000000000000000000000000000100000100000,
#GOGOSTART
200000200000100000100000200000200000100000100000
200000200000100000100000200000200000100000100000,
200000200000100000100000500008000000100000100000
200000200000100000100000500008000000100000100000,
200000200000100000100000500008000000100000100000
200000200000100000100000500008000000100000100000,
200000200000100000100000100000200000200000200000
100000000000300000000000300000000000000000000000,
#SCROLL 0.75
100000100000100000200000200000200000100000200000
100000000000300000000000400000000000000000000000,
#SCROLL 1
#MEASURE 4/4
100000100000100000200000200000200000100000200000,
#MEASURE 8/4
100000000000400000000000400000000000000000000000
#BPMCHANGE 58.5
#SCROLL 0.5
#GOGOEND
000000000000000000000000000000000000000000000000,
#BPMCHANGE 234
100000000000000000000000200000000000000000000000
100000000000000000000000200000000000000000000000,
100000000000100000000000200000000000200000000000
100000000000100000000000200000000000200000000000,
100000000000100000000000200000000000200000000000
100000100000200000200000100000100000200000200000,
#SCROLL 0.75
#MEASURE 16/4
100000000000100000000000100000000000200000000000
200000000000200000000000100000000000100000000000
100000200000200000200000100000100000100000000000
500000000000000000000008000000000000000000000000,
#SCROLL 1
#MEASURE 4/4
100000000000100000000000200000000000200000000000,
100000000000100000000000200000000000200000000000,
100000100000200000200000100000100000200000200000,
100000100000100000200000200000200000100000100000,
100000100000700000000000000000000000800000000000,
#SCROLL 1.1
200000200000700000000000000000000000800000000000,
#SCROLL 1.3
100000100000700000000000000000000000800000000000,
#SCROLL 1.5
100000100000700000000000000000000000800000000000,
#SCROLL 0.5
300000000000000000000000300000000000300000000000,
300000000000300000000000300000000000300000000000,
#MEASURE 8/4
600000000000000000000000000000000008000000000000
#SCROLL 1
000000000000000000000000000000000000000000000000,
#SCROLL 0.5
100000100000200000200000100000100000200000200000
100000100000100000100000200000200000100000100000,
100000100000200000200000100000100000100000100000
700000000000000000000000800000000000000000000000,
100000100000200000200000100000100000100000200000
200000200000100000100000200000200000100000100000,
100000200000200000200000100000100000200000200000
700000000000000000000000800000000000000000000000,
100000100000200000200000100000100000200000200000
100000100000100000100000200000200000100000100000,
100000100000200000200000100000100000100000100000
700000000000000000000000800000000000000000000000,
100000100000200000200000100000100000100000200000
200000200000100000100000200000200000100000100000,
700000000000000000000000000000000000000000000000
800000000000000000000000000000000000100000100000,
#GOGOSTART
200000200000100000100000500008000000100000100000
200000200000100000100000500008000000100000100000,
200000200000100000100000500008000000100000100000
200000200000100000100000500008000000100000100000,
200020002000100010001000200000200000100000100000
200020002000100010001000200000200000100000100000,
200020002000100010001000200000200000100000100000
200020002000100010001000200000200000100100200200,
100000100000200000200000100000100000200200100100
200000200000100000100000200000200000100100200200,
100000100000200000200000100000100000200200100100
200000200000100000100000200000200000100000100000,
200000200000100000100000200000200000100000100000
200000200000100000100000200000200000100000100000,
200200200000100100100000200200200000100100100000
200200200000100100100000200200200000100010001000,
200000200000200000100000100000100000200020002000
100000100000100000200000200000200000100010001000,
200000200000200000100000100000100000200020002000
100000100000100000200000200000200000100000100000,
200000200000100000100000200200100100200000200000
100000100000200000200000100100200200100000100000,
200000200000100000100000200200100100200200100100
200000000000300000000000400000000000000000000000,
#GOGOEND
#END

COURSE:Oni
LEVEL:5
BALLOON:15,32,20,3,3,3,3
SCOREINIT:580
SCOREDIFF:570
#START
#BPMCHANGE 117
#BARLINEOFF
#MEASURE 2/4
,
#BARLINEON
#MEASURE 4/4
100000200000100000200000100000100000100000000000,
100000200000100000200000100000100000100000000000,
100000200000100000200000100000100000100000000000,
500000000000000000000008000000000000000000000000,
100000100000200000200000100000100000200000200000,
100000100100100000100000100000200000200000000000,
200000200000100000100000200000200000100000100000,
200000200200200000200000200000000000200000200000,
100000100000200000200000100000100000200000200000,
100000100100100000100000100000200000200000000000,
300000000000400000000000300000300000400000000000,
300000000000000000000000000000000000000000100100,
#GOGOSTART
100000100000100000200200200000200000200000100100,
100000100000100000200200200000200000200000000000,
100100100000100000000000200200200000200000100100,
100000100100100000100100100000000000000000000000,
#GOGOEND
100000200000100000200000100000200000100000200000,
700000000000000000000000000000000008000000000000,
100000100000200000200000100000100000200000200000,
100000100100100000100000100000200000200000000000,
200000200000100000100000200000200000100000100000,
200000200200200000200000200000000000200000200000,
100000100000200000200000100000100000200000200000,
100000100100100000100000100000200000200000000000,
300000000000400000000000300000300000400000000000,
300000000000000000000000000000000000000000100100,
#GOGOSTART
100000100000100000200200200000200000200000100100,
100000100000100000200200200000200000200000100100,
100000100000100000200200200000200000200000100100,
100000100100100000100100100000000000000000000000,
500000000000000000000008000000000000000000000000,
600000000000000000000008000000000000000000000000,
#GOGOEND
700000000000000000000000000000000000000000000000,
000000000000000000000000000000000000000000000000,
800000000000000000000000000000000000000000000000,
100000100000200000100000100000100000200000100000,
100000100000200000100000100000200000200000000000,
100000100000200000100000100000100000200000100000,
100000100000200000100000100000200000200000000000,
100000200000100000200000100000100100100000000000,
100000200000100000200000100000100100100000000000,
300000300000000000000000400000400000000000000000,
300000300000000000000000400000400000000000000000,
700000000000000000000000000000000000000000000008,
000000000000000000000000000000000000000000000000,
100000100000200000200000100000100000200000200000,
100000100100100000100000100000200000200000000000,
200000200000100000100000200000200000100000100000,
200000200200200000200000200000000000200000200000,
100000100000200000200000100000100000200000200000,
100000100100100000100000100000200000200000000000,
300000000000400000000000300000300000400000000000,
300000000000000000000000000000000000000000100100,
#GOGOSTART
100000100000100000200200200000200000200000100100,
100000100000100000200200200000200000200000100100,
700000000080000000200200700000000080000000100100,
700000000080000000200200700000000080000000100100,
100000100000100000200200200000200000200000100100,
100000100000100000200200200000200000200000000000,
100100100000100100100000200200200000200200200000,
100100100000100100100000200200200000200200200000,
100100100100100000100000200200200200200000200000,
100100100100100000100000200200200200200000200000,
100100100100100100100000200200200200200200200000,
100200100200100200100200100000300000300000000000,
#GOGOEND
#END

COURSE:Hard
LEVEL:4
BALLOON:12,30,15,5,5
SCOREINIT:720
SCOREDIFF:790
#START
#BPMCHANGE 117
#BARLINEOFF
#MEASURE 2/4
,
#BARLINEON
#MEASURE 4/4
100000000000100000000000100000100000100000000000,
100000000000100000000000100000100000100000000000,
100000000000100000000000100000100000100000000000,
500000000000000000000008000000000000000000000000,
100000100000100000000000100000100000100000000000,
100000100000200000200000100000000000000000000000,
200000200000200000000000200000200000200000000000,
200000000000200000000000200000000000000000000000,
100000100000100000000000100000100000100000000000,
100000100000200000200000100000000000000000000000,
300000000000300000000000300000300000300000000000,
300000000000000000000000000000000000000000100100,
#GOGOSTART
100000100000100000000000000000000000000000100100,
100000100000100000000000000000000000000000000000,
100100100000100000000000000000000000000000100100,
100000100100100000100100100000000000000000000000,
#GOGOEND
100000000000200000000000100000100000200000000000,
700000000000000000000000000000000008000000000000,
100000100000100000000000100000100000100000000000,
100000100000200000200000100000000000000000000000,
200000200000200000000000200000200000200000000000,
200000000000200000000000200000000000000000000000,
100000100000100000000000100000100000100000000000,
100000100000200000200000100000000000000000000000,
300000000000300000000000300000300000300000000000,
300000000000000000000000000000000000000000100100,
#GOGOSTART
100000100000100000000000000000000000000000100100,
100000100000100000000000000000000000000000100100,
100000100000100000000000000000000000000000100100,
100000100100100000100100100000000000000000000000,
500000000000000000000008000000000000000000000000,
600000000000000000000008000000000000000000000000,
#GOGOEND
900000000000000000000000000000000000000000000000,
000000000000000000000000900000000000000000000000,
800000000000000000000000000000000000000000000000,
100000100000200000000000100000100000200000000000,
100000100000200000200000100000000000000000000000,
100000100000200000000000100000100000200000000000,
100000100000200000200000100000000000000000000000,
100000200000100000200000100000200000100000000000,
100000200000100000200000100000200000100000000000,
300000300000000000000000400000400000000000000000,
300000300000000000000000400000400000000000000000,
900000000000000000000000000000000009000000000008,
000000000000000000000000000000000000000000000000,
100000100000100000000000100000100000100000000000,
100000100000200000200000100000000000000000000000,
200000200000200000000000200000200000200000000000,
200000000000200000000000200000000000000000000000,
100000100000100000000000100000100000100000000000,
100000100000200000200000100000000000000000000000,
300000000000300000000000300000300000300000000000,
300000000000000000000000000000000000000000000000,
#GOGOSTART
000000000000000000100100100000100000100000000000,
000000000000000000100100100000100000100000000000,
000000000000000000700000000000000000800000000000,
000000000000000000700000000000000000800000000000,
000000000000000000100100100000100000100000000000,
000000000000000000100100100000100000100000000000,
000000000000000000000000100100100000200200200000,
000000000000000000000000100100100000200200200000,
000000000000000000000000100100100100100000200000,
000000000000000000000000100100100100100000200000,
000000000000000000000000100100100100100000200000,
600000000000000008000000000000300000300000000000,
#GOGOEND
000000000000000000000000000000000000000000000000,
000000000000000000000000000000000000000000000000,
#END

COURSE:1
LEVEL:2
SCOREINIT:690
SCOREDIFF:870
BALLOON:6,25,12
#START
#BPMCHANGE 117
#BARLINEOFF
#MEASURE 2/4
,
#BARLINEON
#MEASURE 4/4
100000000000000000000000100000000000000000000000,
100000000000100000000000100000000000000000000000,
100000000000000000000000100000000000000000000000,
500000000000000000000008000000000000000000000000,
100000000000100000000000100000000000000000000000,
100000000000100000000000200000000000000000000000,
100000000000100000000000100000000000000000000000,
100000000000100000000000200000000000000000000000,
100000000000100000000000100000000000000000000000,
100000000000100000000000200000000000000000000000,
300000000000300000000000300000000000000000000000,
300000000000000000000000000000000000000000000000,
#GOGOSTART
100000000000100000000000200000000000200000000000,
100000000000100000000000200000000000200000000000,
100000000000100000000000200000000000200000000000,
500000000000000000000008000000000000000000000000,
#GOGOEND
100000000000000000000000100000000000000000000000,
700000000000000000000008000000000000000000000000,
100000000000100000000000100000000000000000000000,
100000000000100000000000200000000000000000000000,
100000000000100000000000100000000000000000000000,
100000000000100000000000200000000000000000000000,
100000000000100000000000100000000000000000000000,
100000000000100000000000200000000000000000000000,
300000000000300000000000300000000000000000000000,
300000000000000000000000000000000000000000000000,
#GOGOSTART
100000000000100000000000200000000000200000000000,
100000000000100000000000200000000000200000000000,
100000000000100000000000200000000000200000000000,
500000000000000000000008000000000000000000000000,
500000000000000000000008000000000000000000000000,
600000000000000000000008000000000000000000000000,
#GOGOEND
900000000000000000000000000000000000000000000000,
000000000000000000000000900000000000000000000000,
800000000000000000000000000000000000000000000000,
100000000000200000000000100000000000000000000000,
100000000000200000000000100000000000000000000000,
100000000000200000000000100000000000200000000000,
100000000000200000000000100000000000000000000000,
100000000000100000000000100000100000100000000000,
100000000000100000000000100000100000100000000000,
300000300000000000000000400000400000000000000000,
300000300000000000000000400000400000000000000000,
900000000000000000000000000000000009000000000008,
000000000000000000000000000000000000000000000000,
100000000000100000000000100000000000000000000000,
100000000000100000000000200000000000000000000000,
100000000000100000000000100000000000000000000000,
100000000000100000000000200000000000000000000000,
100000000000100000000000100000000000000000000000,
100000000000100000000000200000000000000000000000,
300000000000300000000000300000000000000000000000,
300000000000000000000000000000000000000000000000,
#GOGOSTART
100000000000100000000000200000000000200000000000,
100000000000100000000000200000000000200000000000,
100000000000100000000000200000000000200000000000,
100000000000100000000000200000000000000000000000,
100000000000100000000000200000200000200000000000,
100000000000100000000000200000200000200000000000,
100000000000100000000000200000200000200000000000,
100000000000100000000000200000000000000000000000,
100000100000100000000000200000200000200000000000,
100000100000100000000000200000200000200000000000,
100000100000100000000000200000200000200000000000,
600000000000000008000000000000300000300000000000,
#GOGOEND
000000000000000000000000000000000000000000000000,
000000000000000000000000000000000000000000000000,
#END

COURSE:0
LEVEL:1
SCOREINIT:760
SCOREDIFF:1400
BALLOON:3,13,6
#START
#BPMCHANGE 117
#BARLINEOFF
#MEASURE 2/4
,
#BARLINEON
#MEASURE 4/4
100000000000000000000000100000000000000000000000,
100000000000000000000000100000000000000000000000,
100000000000000000000000100000000000000000000000,
500000000000000000000008000000000000000000000000,
100000000000000000000000100000000000000000000000,
100000000000100000000000100000000000000000000000,
100000000000000000000000100000000000000000000000,
100000000000100000000000100000000000000000000000,
100000000000000000000000100000000000000000000000,
100000000000100000000000100000000000000000000000,
300000000000000000000000300000000000000000000000,
300000000000000000000000000000000000000000000000,
#GOGOSTART
100000000000100000000000000000000000000000000000,
100000000000100000000000000000000000000000000000,
100000000000100000000000000000000000000000000000,
500000000000000000000008000000000000000000000000,
#GOGOEND
100000000000000000000000100000000000000000000000,
700000000000000000000008000000000000000000000000,
100000000000000000000000100000000000000000000000,
100000000000100000000000100000000000000000000000,
100000000000000000000000100000000000000000000000,
100000000000100000000000100000000000000000000000,
100000000000000000000000100000000000000000000000,
100000000000100000000000100000000000000000000000,
300000000000000000000000300000000000000000000000,
300000000000000000000000000000000000000000000000,
#GOGOSTART
100000000000100000000000000000000000000000000000,
200000000000200000000000000000000000000000000000,
100000000000100000000000000000000000000000000000,
500000000000000000000008000000000000000000000000,
500000000000000000000008000000000000000000000000,
600000000000000000000008000000000000000000000000,
#GOGOEND
900000000000000000000000000000000000000000000000,
000000000000000000000000900000000000000000000000,
800000000000000000000000000000000000000000000000,
100000000000000000000000100000000000000000000000,
200000000000000000000000200000000000000000000000,
100000000000000000000000100000000000000000000000,
200000000000000000000000200000000000000000000000,
100000000000100000000000100000000000000000000000,
100000000000100000000000100000000000000000000000,
300000000000000000000000300000000000000000000000,
300000000000000000000000300000000000000000000000,
900000000000000000000000000000000009000000000008,
000000000000000000000000000000000000000000000000,
100000000000000000000000100000000000000000000000,
100000000000100000000000100000000000000000000000,
100000000000000000000000100000000000000000000000,
100000000000100000000000100000000000000000000000,
100000000000000000000000100000000000000000000000,
100000000000100000000000100000000000000000000000,
300000000000000000000000300000000000000000000000,
300000000000000000000000000000000000000000000000,
#GOGOSTART
100000000000100000000000000000000000000000000000,
100000000000100000000000000000000000000000000000,
100000000000100000000000000000000000000000000000,
100000000000100000000000000000000000000000000000,
100000000000100000000000000000000000000000000000,
200000000000200000000000000000000000000000000000,
100000000000100000000000000000000000000000000000,
200000000000200000000000000000000000000000000000,
100000000000100000000000000000000000000000000000,
500000000000000000000008000000000000000000000000,
100000000000100000000000000000000000000000000000,
600000000000000000000000000000000008000000000000,
#GOGOEND
000000000000000000000000000000000000000000000000,
000000000000000000000000000000000000000000000000,
#END
