//TJADB Project
TITLE:Tenjiku 2000
TITLEJA:てんぢく2000
SUBTITLE:--Linda AI-CUE
BPM:180
WAVE:Tenjiku 2000.ogg
OFFSET:-5.428
DEMOSTART:11.226

COURSE:Oni
LEVEL:10
BALLOON:6,6,6,6
SCOREINIT:450
SCOREDIFF:108
#START
,
,
#MEASURE 3/4
,
,
,
#MEASURE 4/4
12021020,
#MEASURE 3/4
102220102220,
102220102220,
100100200000100100200000100200102020,
#MEASURE 4/4
1000222010002220,
100000000000200200200000200200200000202020200000,
1000222010002220,
1000100022202220,
1000222010002220,
100000000000200200200000200200200000202020200000,
1012,
#MEASURE 3/4
102220102220,
100222200100222200,
100100200000100100200000100200102020,
#MEASURE 4/4
1000222010002220,
100000000000200200200000200200200000202020200000,
1000222010002220,
1000100022202220,
1000222010002220,
100000000000100200200200100200200100202020100000,
1,
#MEASURE 2/4
04,
#MEASURE 4/4
0000112011201022,
1000221012201000,
100100200000100100200000101010200000101010200000,
1000002210000000,
0000112011201022,
1000221012201000,
200200100000200200100000202020100000202020100000,
1000001120000000,
21112121,
1121102011211000,
12221212,
200200102020100000100000200200102020100000000000,
000222200100100000300000,
000222200100100000400000,
100000200200100000200200100000202020100000200000,
100100200000100100200000101010200000101010200000,
500000000000000008000000000000202020200000000000,
500000000000000008000000000000202020200000000000,
500000000000000008000000000000202020200000000000,
500000000000000008000000202020002020200000200000,
1201021012010210,
1201021012010210,
1000001110201020,
100100100100100000100000200000200000202020202000,
,
#MEASURE 5/4
11222011222011222010,
#MEASURE 4/4
100000000000111200111200,
1122201122201122,
#MEASURE 2/4
2,
#MEASURE 4/4
78,
1000100011101000,
78,
1000100011101000,
100000200200100000222200,
100000200200100000222200,
100222200100100222200100,
100000000000111011100100,//64
#GOGOSTART
78,
2222200022222000,
78,
2222200022222000,
1111221022202000,
1122112011101000,
#MEASURE 3/4
100222200100222200,
100100202020200000100100202020200000,
100100202020100100200000300000300000,//73
#GOGOEND
#MEASURE 4/4
,
13,
13,
#MEASURE 5/4
1011011003,//77
#MEASURE 4/4
#GOGOSTART
2222202222202210,
1120221010112020,
1011201111201022,
2020101020111020,
1000221000112000,
1220102220404000,
0022102011201020,
100100100100200000100000200200200200202020200000,//85
#GOGOEND
4,
#MEASURE 5/4
100100202020200000100100202020200000100100202020200000100000,
#MEASURE 4/4
100000000000111200111200,
100100202020200000100100202020200000100100202020,
#MEASURE 2/4
2230,
#MEASURE 4/4
02021020,
#MEASURE 3/4
100222200100222200,
100100202020200000100100202020200000,
111200111200100111,
#MEASURE 4/4
1000202010002220,
100000000000200200200000200200200000202020200000,
1000222010002220,
100000100000222200222200,
1000222010002220,
100000000000100200200200100200200100202020100000,
1,
#MEASURE 3/4
221111,
#MEASURE 5/4
200020001000100010001000200200100100000000200200100100000000,
#MEASURE 3/4
221100221100221100,
#MEASURE 4/4
221100222222200000000100,
3,
#END

COURSE:Hard
LEVEL:8
BALLOON:5,5,5,5,20
SCOREINIT:470
SCOREDIFF:115
#START
,
,
#MEASURE 3/4
,
,
,
#MEASURE 4/4
12021020,
#MEASURE 3/4
11,
102220102220,
100010001212,
#MEASURE 4/4
1000222010002220,
1000200022202220,
1000222010002220,
1000100022202220,
1000222010002220,
1000200022202220,
1012,
#MEASURE 3/4
11,
102220102220,
100010001212,
#MEASURE 4/4
1000222010002220,
1000200022202220,
1000222010002220,
1000100022202220,
1000222010002220,
1000100010010010,
1,
#MEASURE 2/4
04,
#MEASURE 4/4
0111,
1000112011201000,
1110111011101110,
1000002220000000,
0111,
1000112011201000,
2220222022202220,
2000001110000000,
21112121,
1110111011111000,
12221212,
2220222022222000,
0022201010003000,
0022201010004000,
12121212,
1120112011201000,
500000000000000008000000000000000000000000000000,
500000000000000008000000000000000000000000000000,
500000000000000008000000000000200200200000000000,
500000000000000008000000000000000000000000000000,
1001001010010010,
1001001010010010,
10011010,
1110111022202220,
,
#MEASURE 5/4
11111011111011111000,
#MEASURE 4/4
1,
2222202222202222,
#MEASURE 2/4
2,
#MEASURE 4/4
78,
1000100011101000,
78,
1000100011101000,
10221020,
10221020,
1022200010222000,
1011,//64
#GOGOSTART
78,
2000200022202000,
78,
2000200022202000,
1111100020002000,
1111100020002000,
#MEASURE 3/4
102220102220,
102220102220,
333,//73
#GOGOEND
#MEASURE 4/4
,
13,
13,
#MEASURE 5/4
1011011000,//77
#MEASURE 4/4
#GOGOSTART
2220202220202220,
1011101010111000,
1011100010111000,
2220111022222000,
1000221000112000,
1110101022204000,
0022200011100000,
1111100022222000,//85
#GOGOEND
4,
#MEASURE 5/4
11111011111011111000,
#MEASURE 4/4
1,
2222202222202222,
#MEASURE 2/4
2,
#MEASURE 4/4
02021020,
#MEASURE 3/4
11,
102220102220,
101011,
#MEASURE 4/4
1000222010002220,
1000200022202220,
1000222010002220,
1000100022202220,
1000222010002220,
1000200022202220,
1,
#MEASURE 3/4
221111,
#MEASURE 5/4
200020001000100010001000200200100100000000000000700000000000,
#MEASURE 3/4
,
#MEASURE 4/4
08,
3,
,
,
#END

COURSE:Normal
LEVEL:7
BALLOON:8,8,8,8,15
SCOREINIT:990
SCOREDIFF:298
#START
,
,
#MEASURE 3/4
,
,
,
#MEASURE 4/4
11011000,
#MEASURE 3/4
11,
11,
111,
#MEASURE 4/4
1,
,
11,
1100,
11,
500000000000000000000000000008000000000000000000,
11011000,
#MEASURE 3/4
11,
11,
111,
#MEASURE 4/4
1,
,
11,
1100,
11,
500000000000000000000000000000000000000000000008,
,
#MEASURE 2/4
04,
#MEASURE 4/4
0111,
11,
1111,
12,
0111,
11,
2222,
21,
2121,
2220,
1212,
1110,
2220,
1110,
1111,
2220,
500000000000000000000008000000000000000000000000,
500000000000000000000008000000000000000000000000,
500000000000000000000008000000000000000000000000,
500000000000000000000008000000000000000000000000,
11,
11,
1,
33,
12021020,
#MEASURE 5/4
1001001010,
#MEASURE 4/4
12021020,
10010010,
#MEASURE 2/4
1,
#MEASURE 4/4
9009,
0800000000000000,
9009,
0800000000000000,
1212,
1212,
11,
1,//64
#GOGOSTART
9009,
0800000000000000,
9009,
0800000000000000,
2220,
1110,
#MEASURE 3/4
110110,
110110,
110330,//73
#GOGOEND
#MEASURE 4/4
3,
13,
13,
#MEASURE 5/4
1,//77
#MEASURE 4/4
#GOGOSTART
22022020,
1110,
11011010,
2220,
10120120,
12012040,
02201100,
1122,//85
#GOGOEND
4,
#MEASURE 5/4
1001001010,
#MEASURE 4/4
1,
20020020,
#MEASURE 2/4
2,
#MEASURE 4/4
11011000,
#MEASURE 3/4
11,
11,
111,
#MEASURE 4/4
1,
,
11,
1100,
11,
500000000000000000000000000000000008000000000000,
1,
#MEASURE 3/4
220000,
#MEASURE 5/4
220000700000000,
#MEASURE 3/4
,
#MEASURE 4/4
0000000008000000,
3,
,
,
#END

COURSE:Easy
LEVEL:4
BALLOON:6,6,6,6,15
SCOREINIT:750
SCOREDIFF:258
#START
,
,
#MEASURE 3/4
,
,
,
#MEASURE 4/4
11,
#MEASURE 3/4
11,
11,
1,
#MEASURE 4/4
1,
,
0101,
0100,
0101,
500000000000000000000000000008000000000000000000,
11,
#MEASURE 3/4
11,
11,
1,
#MEASURE 4/4
1,
,
0101,
0100,
0101,
500000000000000000000000000000000000000000000008,
,
#MEASURE 2/4
,
#MEASURE 4/4
0101,
0101,
0101,
0220,
0202,
0202,
0202,
0110,
0202,
0222,
0101,
0111,
0202,
0101,
0111,
0111,
500000000000000000000000000000000000000000000008,
,
500000000000000000000000000000000000000000000008,
,
11,
11,
1,
33,
3,
#MEASURE 5/4
1001001010,
#MEASURE 4/4
,
10010010,
#MEASURE 2/4
1,
#MEASURE 4/4
9009,
0800000000000000,
9009,
0800000000000000,
0202,
0202,
0202,
0200,//64
#GOGOSTART
9009,
0800000000000000,
9009,
0800000000000000,
1110,
1110,
#MEASURE 3/4
111,
111,
111,//73
#GOGOEND
#MEASURE 4/4
1,
1,
1,
#MEASURE 5/4
1,//77
#MEASURE 4/4
#GOGOSTART
0202,
0222,
0202,
0222,
0101,
0111,
0202,
0222,//85
#GOGOEND
4,
#MEASURE 5/4
1001001010,
#MEASURE 4/4
,
20020020,
#MEASURE 2/4
2,
#MEASURE 4/4
1,
#MEASURE 3/4
11,
11,
1,
#MEASURE 4/4
1,
,
0101,
0101,
0202,
500000000000000000000000000000000000000000000008,
,
#MEASURE 3/4
7,
#MEASURE 5/4
,
#MEASURE 3/4
,
#MEASURE 4/4
08,
3,
,
,
#END
