//TJADB Project
TITLE:Jinpuumaru
TITLEJA:迅風丸
SUBTITLE:--Go Shiina
BPM:150
WAVE:Jinpuumaru.ogg
OFFSET:-1.905
DEMOSTART:14.705

COURSE:Edit
LEVEL:9
BALLOON:15
SCOREINIT:510
SCOREDIFF:110
#START
3,
#BPMCHANGE 149.86
2222,
#BPMCHANGE 150.14
3,
#BPMCHANGE 150.27
2222,
#BPMCHANGE 150.61
1111,
#BPMCHANGE 148.72
1111,
#BPMCHANGE 151.44
11111111,
#BPMCHANGE 149.8
7008,
#GOGOSTART
#BPMCHANGE 148.84
1011112010201122,
#BPMCHANGE 150
1120122210221220,
1011111122202021,
1120100011221122,
1011112010201122,
1120122210211120,
1112221012221022,
1220112112122211,
#GOGOEND
10012010,
1001201020001000,
10012010,
1001201020202000,
10012010,
1001201020001000,
10012010,
1001201020202000,
3002201010022010,
1002201010202010,
1002201010022010,
1002201010212000,
3002201010022010,
1002201010202010,
1002201010022010,
1122112211122212,
1011201110112010,
2111212121112121,
1011201110112010,
2111212121112121,
1122201110222111,
2221101222102000,
1112111211121121,
2111211121112112,
1011201110112010,
2111212121112121,
1011201110112010,
2111212121112121,
#BPMCHANGE 148.8
1000001020010010,
#BPMCHANGE 151.3
1000001020010010,
#BPMCHANGE 148.85
1221221121122122,
#BPMCHANGE 151.08
1221221222122122,
#MEASURE 2/4
#BPMCHANGE 150
10101111,
#GOGOSTART
#MEASURE 4/4
2000103001201111,
2000103001201111,
2210201120221020,
1001201020101111,
2000103001201111,
2000103001201111,
2210201120221020,
1011201202102211,
1011201202102111,
1011201202102211,
1011201202102111,
1001201111202111,
1001201122112112,
1222101111202111,
1001201122112111,
#GOGOEND
2020202202202000,
2020202202202000,
2020202202202000,
2020202202202021,
#END

COURSE:Oni
LEVEL:8
BALLOON:13,13,13
SCOREINIT:600
SCOREDIFF:130
#START
,
#BPMCHANGE 149.86
1212,
#BPMCHANGE 150.14
,
#BPMCHANGE 150.27
1212,
#BPMCHANGE 150.61
7008,
#BPMCHANGE 148.72
1212,
#BPMCHANGE 151.44
7008,
#BPMCHANGE 149.8
3434,
#GOGOSTART
#BPMCHANGE 148.84
1120201010202210,
#BPMCHANGE 150
1120201010202120,
1110222011102220,
1110100011221122,
1120201010202210,
1120201010202120,
1110222111112022,
1122101122112211,
#GOGOEND
1,
2,
1,
2,
1002202020001000,
1120,
1002202020001000,
1220,
1002201022201000,
1120,
1002201022201000,
10202012,
1022201022102020,
1022201022201020,
1022201022102222,
500000000000000000000000000000000008000000000000,
1010200010222022,
1111222211112222,
1010200010112011,
2211221122112211,
1211200010222022,
1112200010102000,
1122112211221122,
7008,
1010200010222022,
1111222211112222,
1010200010102011,
2211221122112112,
#BPMCHANGE 148.8
10002011,
#BPMCHANGE 151.3
1120,
#BPMCHANGE 148.85
10002011,
#BPMCHANGE 151.08
5000000000000000000000000000000000000000000000008,
#MEASURE 2/4
#BPMCHANGE 150
,
#GOGOSTART
#MEASURE 4/4
1111103000112011,
2212203000221022,
1110201110202211,
1010201012020022,
1111103000112011,
2212203000221022,
1110201110202211,
1020102210201021,
1120102210201221,
1020102210201021,
1120102210203000,
3000403000112000,
4000403000221022,
1111103000112011,
2212203000221221,
#GOGOEND
5,
000008000000000000000000000000000000000000000000,
2202022022202000,
2222022022204030,
#END

COURSE:Hard
LEVEL:6
BALLOON:10,10,10
SCOREINIT:700
SCOREDIFF:198
#START
,
#BPMCHANGE 149.86
1212,
#BPMCHANGE 150.14
,
#BPMCHANGE 150.27
1212,
#BPMCHANGE 150.61
7008,
#BPMCHANGE 148.72
1212,
#BPMCHANGE 151.44
7008,
#BPMCHANGE 149.8
3434,//8
#BPMCHANGE 148.84
#GOGOSTART
11201220,
#BPMCHANGE 150
11201220,
1110222011102000,
1110100011101110,
11201220,
11201220,
1110222011102000,
500000000000000000000000000000000008000000000000,//16
#GOGOEND
3,
2,
1,
2,
1221,
1120,
1221,
1220,
1000200022201000,
1120,
1000200022201000,
1220,
1000202022201000,
1120,
1000202022201000,
500000000000000000000000000000000008000000000000,
11201220,
1110222011102220,
11201220,
1110222011102220,
11201220,
1110200010202000,
1110111022202220,
7008,
11201220,
1110222011102220,
11201220,
1110222011102220,
#BPMCHANGE 148.8
10002011,
#BPMCHANGE 151.3
1120,
#BPMCHANGE 148.85
10002011,
#BPMCHANGE 151.08
500000000000000000000000000000000000000000000008,
#BPMCHANGE 150
#MEASURE 2/4
8,//49
#MEASURE 4/4
#GOGOSTART
30430000,
30430000,
1110201010002010,
1000100022020020,
30430000,
30430000,
1110201010002010,
1010200011102000,
1020200011102000,
1010200011102000,
1020200011102000,
30430000,
30430000,
1111103000400000,
2222203000400000,//64
#GOGOEND
5,
000008000000000000000000000000000000000000000000,
,
10201043,
,
,
,
#END

COURSE:Normal
LEVEL:4
BALLOON:7,7,7,7
SCOREINIT:850
SCOREDIFF:293
#START
,
#BPMCHANGE 149.86
1212,
#BPMCHANGE 150.14
,
#BPMCHANGE 150.27
1212,
#BPMCHANGE 150.61
7008,
#BPMCHANGE 148.72
1212,
#BPMCHANGE 151.44
7008,
#BPMCHANGE 149.8
3434,//8
#BPMCHANGE 148.84
#GOGOSTART
1202,
#BPMCHANGE 150
1202,
1212,
1110,
1202,
1202,
1212,
500000000000000000000000000000000008000000000000,//16
#GOGOEND
3,
2,
1,
2,
11,
2220,
11,
2220,
12,
1120,
12,
1220,
12,
1120,
12,
500000000000000000000000000000000008000000000000,
1212,
10101110,
1212,
20202220,
1212,
1110,
1212,
7008,
1212,
10101110,
1212,
20202220,
#BPMCHANGE 148.8
1021,
#BPMCHANGE 151.3
1120,
#BPMCHANGE 148.85
1021,
#BPMCHANGE 151.08
500000000000000000000000000000000000000000000008,
#BPMCHANGE 150
#MEASURE 2/4
,//49
#MEASURE 4/4
#GOGOSTART
30030000,
40040000,
10101110,
1110,
30030000,
40040000,
1110,
10201120,
1210,
10201120,
1210,
30030000,
40040000,
30030000,
40040000,//64
#GOGOEND
9009,
8,
,
10201043,
,
,
,
#END

COURSE:Easy
LEVEL:3
BALLOON:4,4,4,6
SCOREINIT:640
SCOREDIFF:228
#START
,
#BPMCHANGE 149.86
1111,
#BPMCHANGE 150.14
,
#BPMCHANGE 150.27
1111,
#BPMCHANGE 150.61
7008,
#BPMCHANGE 148.72
1111,
#BPMCHANGE 151.44
7008,
#BPMCHANGE 149.8
3333,//8
#BPMCHANGE 148.84
#GOGOSTART
11,
#BPMCHANGE 150
22,
11,
1110,
11,
22,
11,
500000000000000000000000000000000008000000000000,//16
#GOGOEND
3,
2,
1,
2,
11,
2,
11,
2,
12,
1120,
12,
1220,
12,
1120,
12,
500000000000000000000000000000000008000000000000,
11,
1111,
11,
2222,
11,
1110,
1111,
7008,
11,
1111,
11,
2222,
#BPMCHANGE 148.8
12,
#BPMCHANGE 151.3
1120,
#BPMCHANGE 148.85
12,
#BPMCHANGE 151.08
500000000000000000000000000000000000000000000008,
#BPMCHANGE 150
#MEASURE 2/4
,//49
#MEASURE 4/4
#GOGOSTART
30030000,
40040000,
1110,
1110,
30030000,
40040000,
1110,
1122,
1120,
1122,
1120,
30030000,
40040000,
30030000,
40040000,//64
#GOGOEND
9009,
8,
,
20202043,
,
,
,
#END
