//TJADB Project
TITLE:Nandodemo Waraou
TITLEJA:なんどでも笑おう
SUBTITLE:--THE iDOLM@STER FIVE STARS❣/THE iDOLM@STER
SUBTITLEJA:THE IDOLM@STER FIVE STARS!!!!!
BPM:155
WAVE:Nandodemo Waraou.ogg
OFFSET:-2
DEMOSTART:79.296

COURSE:Oni
LEVEL:7
BALLOON:15,15,16,26
SCOREINIT:1890
SCOREDIFF:
#START
1,
2012,
1022,
10210000,
1121,
1122,
500000000000000000000000000000000000000000000008,
0043,
#GOGOSTART
70000008,
1011201011102010,
1011201020221020,
1011201011201122,
70000008,
1011201011102010,
1011201011201122,
#GOGOEND
12,
1000102011202010,
1010201022102000,
1000201022101020,
1110222011102000,
1000102011202010,
1010201022102000,
1022102010221020,
1110201110103000,
#GOGOSTART
6,
000000000000000000000000000000000000000008000000,
1011201011102010,
1010201011112000,
6,
000000000000000000000000000000000000000008000000,
1011201011102000,
70000008,
#GOGOEND
1000102011202010,
1010201022102000,
1000201022101020,
1110222011102000,
1110102011102020,
1220102011102000,
1120102011201020,
1110222011102000,
1011202010102020,
1110100022202020,
1011202010102020,
1011101010201020,
1011202010102020,
10221122,
500000000000000000000000000000000000000000000008,
00001122,
3011202030112010,
4000000040002220,
#GOGOSTART
1110200030303040,
0022200011102010,
1011201022201020,
1022201110202000,
1011201020201120,
1022202000112020,
3333,
6008,
1110200030303040,
0022200011102020,
1011201022201020,
1122101022202000,
1011202210112022,
1110222011102220,
600000000000000000000000000000000000000000000008,
0043,
#GOGOEND
7,
08,
#GOGOSTART
1011201021102000,
1010201021112000,
1011201021102000,
1010202010222000,
1011201021102000,
1010201021112000,
1011201021102000,
1010201020222000,
#GOGOEND
#BPMCHANGE 77.5
0404,
0404,
0404,
0404,
#END

COURSE:Hard
LEVEL:5
BALLOON:15,15,20
SCOREINIT:3110
SCOREDIFF:
#START
1,
2,
12,
1,
1022,
11,
500000000000000000000000000000000000000000000008,
0043,
#GOGOSTART
9,
,
8,
1000101011103000,
9,
,
8,
#GOGOEND
22,
11102011,
20211000,
10211021,
1210,
11102011,
20211000,
2112,
1011101010003000,
#GOGOSTART
6,
000008,
10211011,
1000201011103000,
6,
000008,
10211020,
1,
#GOGOEND
11112011,
20211120,
10211021,
10201120,
11112011,
20211120,
10211021,
1434,
11201122,
11102202,
11201122,
11101202,
11221122,
10211121,
5,
000008000000100100200200,
33,
44,
#GOGOSTART
10203334,
0011100011102000,
10201122,
1000101000222000,
1000100011101020,
10110012,
3333,
600000000000000008000000,
10203334,
0011100011102000,
10201122,
1000201000222000,
3344,
3433,
600000000000000000000008,
0043,
#GOGOEND
7,
0000000800000000,
#GOGOSTART
11212010,
1010201020111000,
11212010,
1010201020222000,
11212010,
1010201020111000,
11212010,
1010201020222000,
#GOGOEND
#BPMCHANGE 77.5
0404,
0404,
0404,
0404,
#END

COURSE:Normal
LEVEL:4
BALLOON:15,15,15
SCOREINIT:4590
SCOREDIFF:
#START
1,
2,
1,
2,
11,
11,
500000000000000000000008,
0033,
#GOGOSTART
9,
,
8,
1013,
9,
,
8,
#GOGOEND
22,
1112,
1110,
1121,
1210,
1112,
1110,
2211,
1003,
#GOGOSTART
6,
000000000000000008000000,
10111010,
1213,
6,
000000000000000008000000,
1122,
1,
#GOGOEND
1112,
1110,
1121,
1210,
10111010,
10111000,
10111011,
1334,
10101110,
10101101,
10101110,
20201101,
10101110,
10101111,
5,
008000000000100100100000,
33,
44,
#GOGOSTART
10003033,
0011,
10001110,
10110020,
10111022,
20110011,
3333,
600000000000000008000000,
10003033,
0011,
10001110,
10110020,
3344,
3333,
600000000000000000000008,
0033,
#GOGOEND
7,
0000000800000000,
#GOGOSTART
1121,
1021,
1121,
1120,
1121,
1021,
1121,
12,
#GOGOEND
#BPMCHANGE 77.5
0404,
0404,
0404,
0404,
#END

COURSE:Easy
LEVEL:3
BALLOON:15,15,5,4,4,12
SCOREINIT:8590
SCOREDIFF:
#START
1,
,
1,
,
11,
11,
500000000000000000000008,
,
#GOGOSTART
9,
,
8,
,
9,
,
8,
#GOGOEND
0,
11,
1,
11,
1,
11,
1,
11,
2,
#GOGOSTART
6,
000000080000,
11,
1110,
6,
000000080000,
1110,
1,
#GOGOEND
11,
1110,
11,
1110,
1110,
1110,
2220,
70000800,
11,
22,
11,
22,
11,
1011,
5,
080000000000,
33,
44,
#GOGOSTART
1033,
0011,
1011,
70000800,
11,
1100,
3333,
600000080000,
1033,
0011,
1011,
70000800,
3330,
3330,
600000000000000000000008,
,
#GOGOEND
7,
0000000800000000,
#GOGOSTART
11,
1,
11,
1110,
11,
1,
11,
1,
#GOGOEND
#BPMCHANGE 77.5
0404,
0404,
0404,
0404,
#END
