//TJADB Project
TITLE:Neko
TITLEJA:猫
SUBTITLE:--DISH//
SUBTITLEJA:「魔法使いと黒猫のウィズ」&「白猫プロジェクト」より
BPM:77
WAVE:Neko.ogg
OFFSET:-4.338
DEMOSTART:69.204

COURSE:Oni
LEVEL:8
BALLOON:18
SCOREINIT:1020
SCOREDIFF:300
#START
00000300,
100100200201102101100000,
100100200201101101200000,
100100200000100100202202,
100000200001100200100000,
100100202001102111200000,
100100202001101101200001,
101101202002100101202200,
100100200211100300002100,
102100200201101101200001,
102001102001101101200001,
102101102002101101200202,
100000100000200000200000500000000000000008000000,
100101200100100202100200,
100101200101101100200100,
100101200100100101200100,
302020302020300200200100,
100200100202100101200200,
100202102002100102202100,
4020101210203001,
100100100100300300002202,
#GOGOSTART
101101200201101100202201,
101101100202102100202202,
100102102201102102202201,
200101200201102102202201,
100102111001102102202201,
100102111001102102202201,
200101202201102102202100,
100000200000100202100207,
00000800,
#GOGOEND
#END

COURSE:Hard
LEVEL:3
BALLOON:21
SCOREINIT:1230
SCOREDIFF:480
#START
00000300,
10201120,
10201120,
10201122,
10201210,
10201120,
10201220,
10201122,
10210300,
10221120,
10221120,
10201122,
100000000000200000200000500000000000000008000000,
12121120,
12121220,
12121120,
500000000000000000000000000000000008000000000000,
12102120,
30303301,
4043,
600000000000000008000000300000300000000000000000,
#GOGOSTART
11221120,
12121110,
11221120,
12121110,
100100202000100100200000,
100100202000100100200000,
12121110,
4043,
9,
#GOGOEND
8,
#END

COURSE:1
LEVEL:3
BALLOON:15
SCOREINIT:1280
SCOREDIFF:675
#START
00000300,
1022,
1022,
1012,
10002220,
1012,
1012,
10101022,
10000300,
10101120,
10101120,
10201022,
100000000000000000000000500000000000000008000000,
10101110,
10102220,
10101110,
500000000000000000000000000000000008000000000000,
10101110,
30303300,
4043,
600000000000000000000000000008000000000000000000,
#GOGOSTART
11102220,
11102220,
10101210,
10101210,
11102020,
11102020,
10101110,
4043,
9,
#GOGOEND
8,
#END

COURSE:0
LEVEL:2
BALLOON:12
SCOREINIT:1300
SCOREDIFF:1103
#START
00000300,
11,
11,
11,
1,
12,
12,
12,
10000300,
1110,
1110,
1110,
22,
1011,
2022,
1011,
500000000000000000000000000008000000000000000000,
1011,
3330,
44,
600000000000000000000000000008000000000000000000,
#GOGOSTART
1110,
1110,
1111,
500000000000000000000000000008000000000000000000,
1120,
1120,
1111,
4043,
9,
#GOGOEND
8,
#END
