//TJADB Project
TITLE:Amber Light
TITLEJA:Amber Light
SUBTITLE:--Junichi Nakatsuru (BNSI)
SUBTITLEJA:BNSI(中鶴潤一)
BPM:252
WAVE:Amber Light.ogg
OFFSET:-0.705
DEMOSTART:30.957

COURSE:Oni
LEVEL:9
BALLOON:7,3,3,3,3,3,3,25
SCOREINIT:1570
SCOREDIFF:0
#START
#BARLINEOFF
#MEASURE 1/4
#SCROLL 0.5
03,
#BARLINEON
#MEASURE 8/4
000000100000100000100000200000000000000000300000000000100000100000100000200000200000200000200000,
000000300000000000100100200000000000000000300000000000100000100000100000200000200000200000200000,
100000000000000000700000000000000000000000000000800000000000200020002000200000000000000000000000,
100000100000000000100000000000100000000000100000100000000000100000000000200000000000000000300000,
#GOGOSTART
000000100000100000100000200000100000000000300000000000100000100000100000200000100000000000300000,
000000100000100000100000200000100000000000300000000000100000200000100000200000200000000000700000,
000000000000800000000000100000100000000000000000100000200000100000100000200000100000000000100000,
000000200000100000100000200000100000000000100000000000000000100000000000200000000000000000300000,
000000100000100000100000200000100000000000300000000000100000100000100000200000100000000000300000,
000000100000100000100000200000100000000000300000000000100000200000100000200000200000000000700000,
000000000000800000000000100000100000000000000000100000200000000000100000200000100000200000200000,
000000100000100000100000200000100000200000200000000000000000000000000000200000000000000000300000,
#GOGOEND
000000100000100000000000200000100000000000100000000000200000100000000000200000100000000000100000,
000000100000100000000000200000100000000000100000000000200000100000100000200000100000000000100000,
000000100000100000100000200000100000000000100000000000200000100000100000200000100000000000100000,
000000100000100000100100200000100000200000200000000000000000000000000000200000000000000000300000,
000000200000100000200000100000200000000000100000000000000000100000000000200000000000200000100000,
000000000000100000000000200000000000200000100000000000200000100000200000100000200000200000100000,
000000100000100000000000100000100000000000100000200000200000100000100000200000100000200000100000,
000000100000100000000000200000200000100000100000000000200000100000100000200000000000000000300000,
000000200000100000200000100000200000000000100000000000000000100000000000200000000000200000100000,
000000000000100000000000200000000000200000100000200000000000200000000000100000100000100000200000,
000000000000200000000000000000000000500000000000000000000000000000000008000000000000200000000000,
200000100100100000100000000000100100100000100000000000200200200000000000200000200000000000300000,
000000200000100000000000200000100000000000200000100000000000000000000000200000200000000000100000,
000000200000100000000000200000100000000000200000100000000000200000200000100000200000000000100000,
000000200000100000000000200000100000000000200000100000000000000000000000200000200000000000100000,
000000200000100000000000100000200000000000200000100000000000200000200000200000200000000000300000,
000000200000100000000000200000100000000000200000100000000000000000000000200000200000000000100000,
000000200000100000000000200000100000000000200000100000000000200000200000100000200000000000100000,
000000200000100000000000200000100000000000200000100000000000000000000000200000200000000000100000,
000000200000100000000000100000200000000000200000100000100000200000200000200000200000000000300000,
000000200000100000000000200000100000000000200000100000200000000000200000100000200000000000100000,
000000200000100000000000200000100000200000200000100000000000200000200000100000200000000000100000,
000000200000100000000000200000100000200000200000100000000000200000200000100000200000000000100000,
000000200000100000000000100000200000000000200000100000000000200000200000200000200000000000300000,
000000200000100000000000200000100000000000200000100000200000200000200000100000200000200000100000,
000000200000100000000000200000100000000000200000100000200000200000200000100000100000200000100000,
000000200000100000000000100000100100100000000000100000100100100000100000100000100000000000300000,
000000000000300000000000000000300000000000000000300000000000000000300000000000000000000000300000,
#GOGOSTART
000000100000100000100000200000100000000000100000000000300000000000100000200000100000100000100000,
000000100000000000300000000000100000200000100000000000100000100000000000400000000000000000700000,
000000000000800000000000100000100000200020001000100010001000200020002000200000100000000000100000,
000000200000100000100000200000100000000000100000000000000000100000000000200000000000000000300000,
000000100000100000100000200000000000300000000000100000100000200000000000300000000000100000200000,
000000100100100000100000200000100000000000400000000000000000000000000000200000200000000000700000,
000000000000800000000000100000100000000000000000100000200000100100100000200000100000000000100000,
000000100100100000100000200000100000000000100000000000000000100000000000200000000000000000300000,
000000100000100000100000200000100000000000300000000000100000100000100000200000100000000000300000,
000000100000100000100000200000100000000000300000000000100000200000100000200000200000000000700000,
000000000000800000000000100000100000200000200000100000200000100000100000200000100000000000100000,
000000100000100010001000200000000000100100100000200000000000101010000000200000000000000000300000,
000000100000100000100000200000100000000000300000000000100000100000100000200000100000000000300000,
000000100000100000100000200000100000000000300000000000100000200000100000200000200000000000700000,
000000000000800000000000200000200000000000000000200000200000000000200000000000200000000000200000,
000000200000200000200000200000200000200000200000200000100000000000000000000000000000000000300000,
#GOGOEND
#MEASURE 13/8
0111203011120,
#MEASURE 8/4
300000000000100000100000100000200000000000300000000000100000100000100000100000100000200000200000,
200000000000000000300000000000000000300000000000000000300000000000000000300000000000000000700000,
000000000000000000000000000000000000000000000000000000000000000000000000000000000000800000000000,
100020002000200010001000200000000000100020002000200000100000200000100100200000200000000000300000,
#END

COURSE:Hard
LEVEL:8
BALLOON:14,8,8,8,8,8,8,10
SCOREINIT:2180
SCOREDIFF:0
#START
#BARLINEOFF
#MEASURE 1/4
#SCROLL 0.5
03,
#BARLINEON
#MEASURE 8/4
000200200000200000000300000200200000200200200000,
000300000200200000000300000200200000200200200000,
9,
800000000000000000000000000000000000000000000300,
#GOGOSTART
000200200000200000000300000200200000200000000300,
000200200000200000000300000200200000200000000700,
000000000000000000800000200200000200000200000200,
000100100000100000000100000000100000200000000300,
000200200000200000000300000200200000200000000300,
000200200000200000000300000200200000200000000700,
000000000000000000800000200200000200000200000200,
000100100000100100100100000000000000200000000300,
#GOGOEND
000100100000100000000100000100100000100000000100,
000100100000100000000100000100100000100000000100,
000100100000200000000100000100100000200000000100,
000100100000100100100100000000000000200000000300,
000000100000200000000100000000100000200000100100,
000000100000200000000100000200200200200000000100,
000000100000200000000100000000100000200000100100,
000000100000200200200200000100100000200000000300,
000000100000200000000100000000100000200000100100,
000000100000200000000000200000200000200200200200,
000000200000000000500000000000000080000000200000,
200500000000000000000000000000000000008000000300,
000000100000200200000100100000000000200200000100,
000000100000200200000100100000200200000100000100,
000000100000200200000100100000000000200200000100,
000000100000200200000100100000200200000100000300,
000000100000200200000100100000000000200200000100,
000000100000200200000100100000200200000100000100,
000000100000200200000100100000000000200200000100,
000000100000200200000100500000000000008000000300,
000100100000200200000100100000000000200200000100,
000100100000200200000100100000200200000100000100,
000100100000200200000100100000000000200200000100,
000100100000200200000100100000200200200200000300,
000100100000200200000100100000200200200200000100,
000100100000200200000100100000200200200200000100,
000100100000100100100000100100100100100000000300,
000000300000000300000000300000000300000000000300,
#GOGOSTART
000200200200200000000000000300000200200200200000,
000000000300000200200200000200000000300000000700,
000000000000000000800000200200200200000200000200,
000100100100100000000100000000100000200000000300,
000200200200200000300000200200200000300000200200,
000100100000100100000400000000000000200200000700,
000000000000000000800000200200200200000200000200,
000100100100100000000100000000100000200000000300,
000200200200200000000300000200200200200000000300,
000200200200200000000300000200200200200000000700,
000000000000000000800000200200200200000200000200,
000100100100100000000100000000100000200000000300,
000100100100100000000300000200200200200000000300,
000100100100100000000300000200200200200000000700,
000000000000000000800000200200000200000200000200,
000200200000200200200000200100000000000000000300,
#GOGOEND
#MEASURE 13/8
0222203022220,
#MEASURE 8/4
300000200200200200000300000200200200200200200200,
000000000300000000300000000300000000300000000900,
000000000000000000000000000000000000800000000000,
000000000000000000000000000100100000100100000300,
#END

COURSE:Normal
LEVEL:7
BALLOON:10,12,7,12,12,12,12,7
SCOREINIT:3900
SCOREDIFF:0
#START
#BARLINEOFF
#MEASURE 1/4
#SCROLL 0.5
03,
#BARLINEON
#MEASURE 8/4
000000200000200000000300000000200000200000000000,
000300000000000000000300000000200000200000000000,
900000000000000000000000000000000000000000000000,
800000000000000000000000000000000000000000000300,
#GOGOSTART
000000200000200000000300000000200000200000000300,
000000200000200000000300000000200000200000000700,
000000000000000000000000000000000000800000000000,
000000100000100000000100000000200000200000000300,
000000200000200000000300000000200000200000000300,
000000200000200000000300000000200000200000000700,
000000000000000000000000000000000000800000000000,
000000100000100000000300000000000000000000000300,
#GOGOEND
000000100000100000000100000000000000000000000100,
000000100000100000000100000000000000000000000100,
000000100000100000000100000000000000000000000100,
000000100000100000000300000000000000000000000300,
000000100000200000000100000000000000000000000100,
000000100000200000000100000000000000000000000100,
000000100000200000000100000000000000000000000100,
000000100000200000000100000000100000200000000300,
000000100000200000000100000000000000000000000100,
000000100000200000000000200000200000200000000100,
000000100000000000500000000000080000000000200000,
500000000000000000000000000000000080000000000300,
000000100000200000000000100000000000200000000100,
000000100000200000000000100000000000100000000100,
000000100000200000000000100000000000200000000100,
000000100000200000000000100000000000100000000300,
000000100000200000000000100000000000200000000100,
000000100000200000000000100000000000100000000100,
000000100000200000000000100000000000200000000100,
000000100000200000000000500000000080000000000300,
000000100000200000000000100000000000200000000100,
000000100000200200000000100000000000100000000100,
000000100000200000000000100000000000200000000100,
000000100000200200000000100000000000200000000300,
000000100000200200000000100000000000200000000100,
000000100000200200000000100000000000200000000100,
000000100000100100000000100000000000100000000100,
000000100000000100000000100000000100000000000300,
#GOGOSTART
000000200000200000000000000300000000200000200000,
000000000300000000000000000000000000300000000700,
000000000000000000000000000000000000800000000000,
000000100000100000000100000000200000200000000300,
000000200000200000300000000000000000300000000000,
000000100000100000000300000000000000200000000700,
000000000000000000000000000000000000800000000000,
000000100000100000000100000000200000200000000300,
000000200000200000000300000000200000200000000300,
000000200000200000000300000000200000200000000700,
000000000000000000000000000000000000800000000000,
000000100000100000000100000000200000200000000300,
000000200000200000000300000000200000200000000300,
000000200000200000000300000000200000200000000700,
000000000000000000000000000000000000800000000000,
000000200000200000200000200200000000000000000300,
#GOGOEND
#MEASURE 13/8
0223022,
#MEASURE 8/4
300000000200000200000300000000200000200000200200,
000000000300000000300000000300000000300000000900,
000000000000000000000000000000000000800000000000,
000000000000000000000000000000100000100000000300,
#END

COURSE:Easy
LEVEL:5
BALLOON:8,10,6,10,10,10,10,6
SCOREINIT:6400
SCOREDIFF:0
#START
#BARLINEOFF
#MEASURE 1/4
#SCROLL 0.5
03,
#BARLINEON
#MEASURE 8/4
000000000000000000000300000000000000000000000000,
000300000000000000000300000000000000000000000000,
900000000000000000000000000000000000000000000000,
800000000000000000000000000000000000000000000300,
#GOGOSTART
000000000000000000000300000000000000000000000300,
000000000000000000000300000000000000100000000700,
000000000000000000000000000000000000800000000000,
000000000000000000000000000000100000100000000300,
000000000000000000000300000000000000000000000300,
000000000000000000000300000000000000100000000700,
000000000000000000000000000000000000800000000000,
000000100000100000000300000000000000000000000300,
#GOGOEND
000000000000100000000100000000000000000000000100,
000000000000100000000100000000000000000000000100,
000000000000100000000100000000000000000000000100,
000000100000100000000300000000000000000000000300,
000000000000100000000100000000000000000000000100,
000000000000100000000100000000000000000000000200,
000000000000200000000200000000000000000000000200,
000000000000200000000200000000000000000000000300,
000000000000100000000100000000000000000000000100,
000000000000100000000100000000000000000000000100,
000000000000000000500000000000000000000000000000,
000000000000000000000000000000080000000000000300,
000000000000200000000000200000000000200000000200,
000000000000000000000000100000000000100000000100,
000000000000200000000000200000000000200000000200,
000000000000000000000000100000000000100000000300,
000000000000200000000000200000000000200000000200,
000000000000000000000000100000000000100000000100,
000000000000200000000000200000000000200000000200,
000000000000500000000000000000080000000000000300,
000000000000200000000000200000000000200000000200,
000000000000100000000000100000000000100000000100,
000000000000200000000000200000000000200000000200,
000000000000100000000000100000000000100000000300,
000000000000200000000000200000000000100000000100,
000000000000200000000000200000000000100000000100,
000000000000100000000000100000000000100000000100,
000000100000000100000000100000000100000000000300,
#GOGOSTART
000000000000000000000000000300000000000000000000,
000000000300000000000000000000000000300000000700,
000000000000000000000000000000000000800000000000,
000000000000000000000000000000100000100000000300,
000000000000000000300000000000000000300000000000,
000000000000000000000300000000000000200000000700,
000000000000000000000000000000000000800000000000,
000000000000000000000000000000100000100000000300,
000000000000200000000300000000000000200000000300,
000000000000200000000300000000000000200000000700,
000000000000000000000000000000000000800000000000,
000000000000000000000000000000100000100000000300,
000000000000200000000300000000000000200000000300,
000000000000200000000300000000000000200000000700,
000000000000000000000000000000000000800000000000,
000000000000200000200000200000000000000000000300,
#GOGOEND
#MEASURE 13/8
000000000000000000000000000000000300000,
#MEASURE 8/4
300000000000000000000300000000000000000000000000,
000000000300000000300000000300000000300000000900,
000000000000000000000000000000000000800000000000,
000000000000000000000000000000100000100000000300,
#END
