//TJADB Project
TITLE:We Are! -TVXQ Version-
TITLEJA:ウィーアー!
SUBTITLE:--TVXQ/ONE PIECE
BPM:168
WAVE:We Are! -TVXQ Version-.ogg
OFFSET:-2.36
DEMOSTART:13.416

COURSE:Oni
LEVEL:6
BALLOON:
SCOREINIT:490
SCOREDIFF:140
#START
0,
0,
0,
10120120,
11202201,
10120120,
3333,
0000000000001001, //8
#GOGOSTART
1010201110102010,
1000201110201020,
10221021,
3333,
1010201110102010,
1000201110201020,
1022202010202000,
10220030,
#GOGOEND
3,
0, //18
10221120,
1000202010111000,
10221120,
1000202010222000,
10221120,
1000202010111000,
10201121,
0010202022202020, //26
10221120,
1000202010111000,
10221120,
1000202010222000,
1000100010111000,
1010201000111000,
10221121,
0010222010102000,
40040000, //35
1020001020222000,
1020001020111000,
1020001020222020,
01201010,
1020001020222000,
1020001020111000,
1010101010111010,
0010102011101110,
1222,
3003003000000000, //45
#GOGOSTART
1010201110102010,
1000201110201020,
10221021,
3333,
1010201110102010,
1000201110201020,
1022202010202000,
10220030, //53
#GOGOEND
10220020,
10220212,
10221120,
10220200,
3000303000222000,
3000303000222000,
1011101110111010,
4403,
3202,
0202,
0202,
3003003000001001, //65
#GOGOSTART
1010201110102010,
1000201110201020,
10221021,
3333,
1010201110102010,
1000201110201020,
1022202010202000,
10220030, //73
#GOGOEND
10220020,
10220212,
10221120,
10220200,
3000303000222000,
3000303000222000,
1011101110111010,
4403,
3,
0, //83
#END

COURSE:Hard
LEVEL:4
BALLOON:
SCOREINIT:620
SCOREDIFF:160
#START
0,
0,
0,
10120120,
10202200,
10120120,
3333,
0001, //8
#GOGOSTART
11201021,
01102011,
100000000100000000500000000000000000000008000000,
3344,
11201021,
0111,
1500,
000000000008000000000000000000000000400000000000,
#GOGOEND
3,
0, //18
10221120,
10221010,
10221120,
10221000,
10221120,
10221010,
10201120,
1, //26
10221120,
10221010,
10221120,
10222000,
10201120,
11210120,
10201120,
1,
40040000, //35
12012020,
12012020,
12012021,
01201010,
12012020,
12012020,
500000000000000000000000000000000000000008000000,
03303033,
3,
0001, //45
#GOGOSTART
11201021,
01102011,
100000000100000000500000000000000000000008000000,
3344,
11201021,
01102010,
1500,
000000000008000000000000000000000000000000000000,//53
#GOGOEND
10220020,
10220020,
10221120,
10220200,
30330030,
30330030,
6,
8003, //verified from video, exact length for big drumroll 3,
0,
0,
0001, //65
#GOGOSTART
11201021,
01102011,
100000000100000000500000000000000000000008000000,
3344,
11201021,
01102010,
1500,
000000000000000000000008000000000000000000000000, //73
#GOGOEND
10220020,
10220020,
10221120,
10220200,
30330030,
30330030,
6008, //verified from video, exact length for big drumroll 3303,
3,
0, //83
#END

COURSE:Normal
LEVEL:3
BALLOON:
SCOREINIT:1070
SCOREDIFF:310
#START
#SCROLL 0.9
0,
0,
0,
1100,
1100,
1100,
3333,
0001, //8
#GOGOSTART
10001011,
0001,
500000000000000000000000000000000000000000000008,
0001,
10001011,
01,
500000000000000000000000000000000000000000000008,
0003,
#GOGOEND
3,
0, //18
11,
1,
22,
2,
11,
1011,
1011,
1, //26
11,
1,
22,
2,
11,
1110,
1111,
1,
0, //35
12,
12,
11,
1,
12,
12,
500000000000000000000000000008000000000000000000,
03303030,
3,
0001, //45
#GOGOSTART
10001011,
0001,
500000000000000000000000000000000000000000000008,
0001,
10001011,
01,
500000000000000000000000000000000000000000000008,
0,//53
#GOGOEND
1001,
1001,
11,
1,
30030000,
30030000,
6,
8003, //verified from video, exact length for big drumroll 3,
0,
0,
0001, //65
#GOGOSTART
10001011,
0001,
500000000000000000000000000000000000000000000008,
0001,
10001011,
01,
500000000000000000000000000000000000000000000008,
0001, //73
#GOGOEND
1001,
1001,
11,
1,
30030000,
30030000,
600000000000000000000000000000000008000000000000,
3303,
3,
0, //83
#END

COURSE:Easy
LEVEL:3
BALLOON:6
SCOREINIT:840
SCOREDIFF:250
#START
#SCROLL 0.8
0,
0,
0,
1100,
1100,
1100,
33,
0, //8
#GOGOSTART
11,
1110,
500000000000000000000000000000000000000000000008,
0,
11,
1110,
500000000000000000000000000000000000000000000008,
0003,
#GOGOEND
3,
0, //18
11,
1,
11,
1,
11,
1011,
1011,
1, //26
11,
1,
22,
2,
11,
1110,
11,
1,
0, //35
12,
12,
11,
1,
12,
12,
500000000000000000000000000000000000000000000008,
0,
3,
0, //45
#GOGOSTART
11,
1110,
500000000000000000000000000000000000000000000008,
0,
11,
1110,
500000000000000000000000000000000000000000000008,
0001,//53
#GOGOEND
1001,
1001,
11,
1,
30030000,
30030000,
6,
8003, //verified from video, exact length for big drumroll 3,
0,
0,
0, //65
#GOGOSTART
11,
1110,
500000000000000000000000000000000000000000000008,
0,
11,
1110,
500000000000000000000000000000000000000000000008,
0001, //73
#GOGOEND
1001,
1001,
11,
1,
30030000,
30030000,
7,
8003, //balloon length not verified 3,
0, //83
#END
