//TJADB Project
TITLE:DDU-DU DDU-DU
SUBTITLE:--BLΛƆKPIИK
BPM:145.72
WAVE:DDU-DU DDU-DU.ogg
OFFSET:-1.927
DEMOSTART:75.482

COURSE:Oni
LEVEL:7
SCOREINIT:2870
SCOREDIFF:
#START
#SCROLL 0.960747
10111001,
#BPMCHANGE 140
#SCROLL 1
11211000,
10111001,
11211440,
#GOGOSTART
3000101020002011,
11211222,
3000101020002011,
11211440,
3000101020002011,
11211222,
3000101020002011,
11211020,
#GOGOEND
10111121,
12112120,
10111121,
11112120,
10111121,
12112120,
10111121,
11112120,
100111211202,
100112111202,
100111211202,
100112111202,
1010100100202002,
0010100100202002,
0010100100202002,
0010200100104000,
20002211,
20000012,
2001002000101010,
2002001020001050,
000000000008000000000000200000200000100000100000,
20000012,
2001002000101010,
2002001020001000,
1000000010010010,
1001001020020022,
1001002010010020,
11211050,
000000000008000000000000100000100100000000200000,
1011002010110020,
1122112211221122,
1010201022002200,
#GOGOSTART
3000101020002011,
11211222,
3000101020002011,
1010201022002200,
3000101020002011,
11211222,
3000101020002011,
11211020,
#GOGOEND
0,
#END

COURSE:Hard
LEVEL:4
SCOREINIT:4600
SCOREDIFF:
#START
#SCROLL 0.960747
1110,
#BPMCHANGE 140
#SCROLL 1
11211000,
1110,
11211040,
#GOGOSTART
3000101020000011,
11211020,
3000101020000011,
11211040,
3000101020000011,
11211020,
3000101020000011,
11211020,
#GOGOEND
1110,
12112000,
1110,
10112000,
1110,
12112000,
1110,
10112000,
100111100000,
100111100000,
100111100000,
100111100000,
1000100100002002,
0000100100002002,
0000100100002002,
0000100100004000,
2,
2,
20020010,
20002025,
000000000008000000000000000000000000000000000000,
2002,
20020010,
2022,
1000000010010000,
1001000020020000,
1001000010010000,
11211050,
000000000008000000000000100000000100000000000000,
1001000010010000,
600000000000000000000000000000000000000000000008,
,
#GOGOSTART
3000101020000011,
11211020,
3000101020000011,
11211020,
3000101020000011,
11211020,
3000101020000011,
11211020,
#GOGOEND
0,
#END

COURSE:Normal
LEVEL:2
SCOREINIT:7780
SCOREDIFF:
#START
#SCROLL 0.960747
1,
#BPMCHANGE 140
#SCROLL 1
2220,
1,
2224,
#GOGOSTART
3120,
11101000,
3120,
11101040,
3120,
11101000,
3120,
11101020,
#GOGOEND
1010,
1110,
1010,
1110,
1010,
1120,
1010,
1120,
1220,
1220,
1220,
1220,
100000000000500000000000000000000000000000000008,
000000000000500000000000000000000000000000000008,
000000000000500000000000000000000000000000000008,
,
2,
2,
2,
20002022,
2,
2,
2,
2022,
1010,
1000000020020000,
1010,
1115,
000000000008000000000000100000000000000000000000,
1000000010010000,
600000000000000000000000000000000000000000000008,
,
#GOGOSTART
3120,
11101000,
3120,
11101000,
3120,
11101000,
3120,
11101020,
#GOGOEND
0,
#END

COURSE:Easy
LEVEL:2
SCOREINIT:12150
SCOREDIFF:
#START
#SCROLL 0.960747
0,
#BPMCHANGE 140
#SCROLL 1
0,
,
,
#GOGOSTART
3020,
1110,
3020,
1110,
3020,
1110,
3020,
1110,
#GOGOEND
1,
1010,
1,
1010,
1,
1020,
1,
1020,
1010,
1020,
1010,
1020,
100000000000500000000000000000000000000000000008,
000000000000500000000000000000000000000000000008,
000000000000500000000000000000000000000000000008,
,
2,
2,
2,
2020,
2,
2,
2,
2020,
1010,
1,
1010,
1015,
000008000000000000000000100000000000000000000000,
1010,
600000000000000000000000000000000000000000000008,
,
#GOGOSTART
3020,
1110,
3020,
1110,
3020,
1110,
3020,
1112,
#GOGOEND
0,
#END
