//TJADB Project
TITLE:Suirenka
TITLEJA:睡蓮花
SUBTITLE:--Shounan no Kaze
BPM:156
WAVE:Suirenka.ogg
OFFSET:-4.618
DEMOSTART:113.474

COURSE:Oni
LEVEL:7
BALLOON:8,13,8,36
SCOREINIT:1540
SCOREDIFF:0
#START
#SCROLL 0.5
000000000000000000000000000000000000000000000000,
100000000000000000000000200000000000000000000000,
200000000000200000000000000000000000200000000000,
100000000000200000000000000000000000200000000000,
200000000000200000000000200000000000000000000000,
100000000000000000000000200000000000000000000000,
200000000000200000000000200000000000000000000000,
100000000000200000000000200000000000000000000000,
200000000000000000000000200000000000000000000000,
#SCROLL 1
100000200000000000200000100000200000200000200000,
100000100000200000200000100000100000200000000000,
100000200000000000200000100000200000200000200000,
100000200000200000200000100000200000100000000000,
100000200000000000200000100000200000200000200000,
100000100000200000200000100000100000200000000000,
100000200000000000200000100000200000200000200000,
100000100000200000500000000000000008000000000000,
200000200000000000000000200000200000000000000000,
200000200000000000000000200000200000000000000000,
300000300000000000000000300000300000000000000000,
300000400000300000400000300000400000300000400000,
#GOGOSTART
100000000200100000200000100000200200100000200000,
100000000200100000200000100200200200100000200000,
100000000200100000200000100000100100100000200000,
100000200000100000100000100000200200100000000000,
100000000200100000200000100000200200100000200000,
100000000200100000200000100200200200100000200000,
100000100100100000100000100100100000100000100000,
100100100000100000000000600000000008000000000000,
300000000100000000300000000000200000200000200000,
300000000100000000400000000000100000100000100000,
300000000100000000300000000000200000200000200000,
300000000100000000700000000000000000000000800000,
100000200100000000100000100000200100000000100000,
100000200100000000100000100000200100000000100000,
700000000000000000000000000000000000000000000000,
800000100000200000200000100000200000200000100000,
#GOGOEND
100000000200200000200000100000100000200000200000,
100000000200200000200000100000100000200000200000,
100000000200200000100000100000100000200000100000,
100000000200200000200000100000100000200000100000,
100000000200200000200000100000100000200000200000,
100000000200200000200000100000100000200000200000,
100000200200100000200000000000200200100000200000,
100100100000200000500000000000000008000000000000,
100000100000200200200000100100100000200000200000,
100000100000200000200000100000000000200000000000,
100000100000200200200000100100100000200000200000,
100000100000200000200000300000000000400000000000,
100100100000200200200000100100100000200000200000,
100200100000200000100200100200100000200000200200,
100000200000000000200000100000100000200000100000,
100100100000200000500000000000000008000000000000,
100000000000200000200000100000000000200000200000,
100000200200200000200000100000200000200000200000,
100000000000200000100000100000000000200000100000,
100000200200200000200000100000200000100000200000,
100000000000200000300000000000200200200000000000,
100000000000200000300000000000200200200000000000,
100000200200200000100000100000100000200000100000,
600000000000000000000008000000200000200000200000,
300000000000200000200000300000000000200000200000,
100000200000000000200000100000100100200000100000,
100000000000200000100000000000200200200000000000,
100000000000200000100000000000200200200000000000,
100000200200200000100000100000100100200000100000,
100100100000000000100000100000000100100000200000,
100000200200200000100000000000200200200000000000,
100000200200200000200000100000200000200000100000,
300000000300000000300000300000000300000000300000,
300000000300000000300000300000000000100000000000,
#GOGOSTART
100000000200100000200000100000200200100000200000,
100000000200100000200000100200200200100000200000,
100000000200100000200000100000100100100000200000,
100100200200100000100000100100200200100000000000,
100000000200100000200000100000200200100000200000,
100000000200100000200000100200200200100000200000,
100000100100100000200000100000100200100000100000,
100000200000100000100000100000200200200000000000,
100000000200100000200000100000200200100000200000,
100000000200100000200000100200200200100000200000,
100000000200100000200000100000100100100000200000,
100100200100200000100000100100200100200000000000,
100000000200100000200000100000200200100000200000,
100000000200100000200000100200200200100000200000,
100000100100100000100000100100100000100000100000,
100100100000100100100000600000000008000000000000,
300000000100000000300000000000200000200000200000,
300000000100000000400000000000100000100000100000,
300000000100000000300000000000200000200000200000,
300000000100000000700000000000000000000000800000,
100000200100000000100000100000200100000000100000,
100000200100000000100000100000200100000000100000,
700000000000000000000000000000000000000000000000,
000000000000000000000000000000000000000000000008,
#GOGOEND
#END

COURSE:Hard
LEVEL:5
BALLOON:5,11,17,5,24
SCOREINIT:2390
SCOREDIFF:0
#START
#SCROLL 0.5
000000000000000000000000000000000000000000000000,
100000000000000000000000200000000000000000000000,
200000000000200000000000000000000000000000000000,
200000000000200000000000000000000000000000000000,
200000000000000000000000200000000000000000000000,
100000000000000000000000200000000000000000000000,
200000000000200000000000200000000000000000000000,
200000000000200000000000200000000000000000000000,
100000000000000000000000200000000000000000000000,
#SCROLL 1
100000200000000000200000000000200000200000200000,
100000000000200000200000100000000000200000000000,
100000200000000000200000000000200000200000200000,
100000000000200000200000100000000000200000000000,
100000200000000000200000000000200000200000200000,
100000000000200000100000100000000000200000000000,
100000200000000000200000200000200000200000000000,
100000000000200000500000000000000080000000000000,
200000200000000000000000200000200000000000000000,
200000200000000000000000200000200000000000000000,
300000000000000000000000300000000000000000000000,
300000000000300000000000300000000000300000000000,
#GOGOSTART
500000000000000000000000000000000080000000000000,
100000000100100000100000100000000000200000200000,
100000000100100000100000100000200000200000000000,
100000100000200000100000100000000000200000000000,
500000000000000000000000000000000080000000000000,
100000000100100000100000100000000000200000200000,
100000200000200000100000100000000000200000100000,
300000000000300000000000600000000080000000000000,
300000000000000000300000000000200000200000000000,
300000000000000000400000000000100000100000000000,
300000000000000000300000000000200000200000000000,
300000000000000000700000000000000000000800000000,
100000000100000000100000100000000100000000100000,
100000000100000000100000100000000100000000100000,
900000000000000000000000000000000000000000000000,
800000000000000000000000000000000000000000000000,
#GOGOEND
100000000000000000100000100000000000100000100000,
100000000000000000100000100000000000100000100000,
100000000000200000100000100000000000200000100000,
100000000000100000200000100000000000200000100000,
100000000000000000100000100000000000200000100000,
100000000000000000100000100000000000200000100000,
100000000000200000100000000000100000100000000000,
100000000000100000500000000000000080000000000000,
100000100000100100100000100000100000200000000000,
100000200000200000100000100000000000200000000000,
100000100000100100100000100000100000200000000000,
100000100000200000200000300000000000400000000000,
100100100000100000100000100000200000200000000000,
100100100000100000100000100000200000200000000000,
100000200000000000200000100000100000200000000000,
100000100000100000500000000000000080000000000000,
100000000000200000200000100000000000200000200000,
100000200000000000200000200000000000200000200000,
100000000000200000200000100000000000200000200000,
100000000000200000000000100000100000200000000000,
100000000000000000300000000000000000200000000000,
100000000000000000300000000000000000200000000000,
100000000000200000200000100000000000200000100000,
600000000000000000000080000000000000000000000000,
300000000000200000200000300000000000200000100000,
100000200000000000200000100000200000200000100000,
100000000000200000100000000000200200200000000000,
100000000000200000100000000000200200200000000000,
100000100000200000000000100000100000200000000000,
100000200000000000200000100000000200200000200000,
100000100000200000200000000000200200200000000000,
100000200000000000200000100000100000200000000000,
700000000000000000000000000000000000000000000000,
000000000000000000000000800000000000000000000000,
#GOGOSTART
500000000000000000000000000000000080000000000000,
100000000100100000100000100000000000100000200000,
100000000100100000100000100000200000200000000000,
100000100000200000100000100000000000200000000000,
500000000000000000000000000000000080000000000000,
100000000100100000100000100000000000200000200000,
100000200000000000200000100000200000100000000000,
100000100000200000100000100000000000200000000000,
500000000000000000000000000000000080000000000000,
100000000100100000100000100000000000200000200000,
100000000100100000100000100000200000200000000000,
100000100000200000100000100000000000200000000000,
500000000000000000000000000000000080000000000000,
100000000100100000100000100000000000100000100000,
100000200000200000100000100000000000200000100000,
300000000000300000000000600000000080000000000000,
300000000000000000300000000000200000200000000000,
300000000000000000400000000000100000100000000000,
300000000000000000300000000000200000200000000000,
300000000000000000700000000000000000000800000000,
100000000100000000100000100000000100000000100000,
100000000100000000100000100000000100000000100000,
900000000000000000000000000000000000000000000000,
000000000000000000000000000000000000000000000008,
#GOGOEND
#END

COURSE:Normal
LEVEL:3
SCOREINIT:4840
SCOREDIFF:0
#START
#SCROLL 0.5
000000000000000000000000000000000000000000000000,
100000000000000000000000000000000000000000000000,
200000000000000000000000000000000000000000000000,
200000000000000000000000000000000000000000000000,
200000000000000000000000200000000000000000000000,
100000000000000000000000000000000000000000000000,
200000000000000000000000000000000000000000000000,
200000000000000000000000000000000000000000000000,
200000000000000000000000200000000000000000000000,
#SCROLL 1
100000000000000000000000000000000000000000000000,
100000000000000000000000100000000000000000000000,
100000000000000000000000000000000000000000000000,
100000000000000000000000100000000000000000000000,
100000000000000000000000000000000000000000000000,
100000000000000000000000100000000000000000000000,
100000000000000000000000000000000000000000000000,
100000000000100000100000000000000000000000000000,
200000000000000000000000200000000000000000000000,
200000000000000000000000200000000000000000000000,
300000000000000000000000300000000000000000000000,
300000000000300000000000300000000000300000000000,
#GOGOSTART
500000000000000000000000000000000080000000000000,
100000000000100000000000100000000000000000000000,
100000000000000000000000100000000000000000000000,
100000000000200000200000200000000000200000000000,
500000000000000000000000000000000080000000000000,
100000000000100000000000100000000000000000000000,
100000000000000000000000200000000000200000000000,
300000000000300000000000300000000000000000000000,
300000000000000000300000000000000000000000000000,
300000000000000000400000000000000000000000000000,
300000000000000000300000000000000000000000000000,
300000000000000000700000000000000000800000000000,
100000000000000000100000100000000000000000100000,
100000000000000000100000100000000000000000100000,
900000000000000000000000000000000000000000000000,
800000000000000000000000000000000000000000000000,
#GOGOEND
100000000000000000000000100000000000000000000000,
100000000000000000000000100000000000000000000000,
100000000000100000000000100000000000000000000000,
100000000000100000000000100000000000000000000000,
100000000000000000000000100000000000000000000000,
100000000000000000000000100000000000000000000000,
100000000000100000000000000000000000000000000000,
500000000000000000000000000000000080000000000000,
100000000000000000000000100000000000000000000000,
100000000000000000000000100000000000100000000000,
100000000000000000000000100000000000000000000000,
100000000000000000000000400000000000400000000000,
100000000000000000000000100000000000000000000000,
100000000000100000000000200000000000200000000000,
700000000000000000000000000000000000000000000000,
000000000000000000000000000000800000000000000000,
100000000000000000000000200000000000000000000000,
100000000000000000000000200000000000200000000000,
100000000000000000000000200000000000000000000000,
100000000000200000000000200000000000200000000000,
200000000000000000300000000000000000000000000000,
200000000000000000300000000000000000000000000000,
100000000000200000200000200000000000200000000000,
600000000000000000000080000000000000000000000000,
300000000000000000000000300000000000000000000000,
100000000000000000000000100000000000100000000000,
100000000000000000200000000000000000000000000000,
100000000000000000200000000000000000000000000000,
100000000000100000000000100000000000100000000000,
100000000000000000000000100000000000100000000000,
100000000000100000100000000000000000000000000000,
100000000000100000100000100000000000100000000000,
700000000000000000000000000000000000000000000000,
000000000000000000800000000000000000000000000000,
#GOGOSTART
500000000000000000000000000000000080000000000000,
100000000000100000000000100000000000100000000000,
100000000000000000000000100000000000000000000000,
100000000000200000200000200000000000200000000000,
500000000000000000000000000000000080000000000000,
100000000000100000000000100000000000100000000000,
100000000000000000000000200000000000200000000000,
100000000000200000200000200000000000200000000000,
500000000000000000000000000000000080000000000000,
100000000000100000000000100000000000100000000000,
100000000000000000000000100000000000000000000000,
100000000000200000200000200000000000200000000000,
500000000000000000000000000000000080000000000000,
100000000000100000000000100000000000100000000000,
100000000000200000200000200000000000200000000000,
300000000000300000000000300000000000000000000000,
300000000000000000300000000000000000000000000000,
300000000000000000400000000000000000000000000000,
300000000000000000300000000000000000000000000000,
300000000000000000700000000000000000800000000000,
100000000000000000100000100000000000000000100000,
100000000000000000100000100000000000000000100000,
900000000000000000000000000000000000000000000000,
000000000000000000000000000000000000000000000008,
#GOGOEND
#END

COURSE:Easy
LEVEL:3
BALLOON:6,10,9,12
SCOREINIT:8550
SCOREDIFF:0
#START
#SCROLL 0.5
000000000000000000000000000000000000000000000000,
100000000000000000000000000000000000000000000000,
000000000000000000000000000000000000000000000000,
200000000000000000000000000000000000000000000000,
200000000000000000000000200000000000000000000000,
100000000000000000000000000000000000000000000000,
000000000000000000000000000000000000000000000000,
200000000000000000000000000000000000000000000000,
200000000000000000000000000000000000000000000000,
#SCROLL 1
100000000000000000000000000000000000000000000000,
000000000000000000000000000000000000000000000000,
100000000000000000000000000000000000000000000000,
000000000000000000000000000000000000000000000000,
100000000000000000000000000000000000000000000000,
000000000000000000000000000000000000000000000000,
100000000000000000000000000000000000000000000000,
100000000000000000000000000000000000000000000000,
200000000000000000000000000000000000000000000000,
200000000000000000000000000000000000000000000000,
300000000000000000000000300000000000000000000000,
300000000000300000000000300000000000000000000000,
#GOGOSTART
500000000000000000000000000080000000000000000000,
100000000000000000000000100000000000000000000000,
100000000000000000000000000000000000000000000000,
200000000000200000000000200000000000000000000000,
500000000000000000000000000080000000000000000000,
100000000000000000000000000000000000000000000000,
100000000000000000000000200000000000000000000000,
300000000000300000000000300000000000000000000000,
300000000000000000000000000000000000000000000000,
300000000000000000000000000000000000000000000000,
300000000000000000000000000000000000000000000000,
300000000000000000000000000000000000000000000000,
100000000000000000000000100000000000000000000000,
100000000000000000000000100000000000000000000000,
900000000000000000000000000000000000000000000000,
800000000000000000000000000000000000000000000000,
#GOGOEND
100000000000000000000000000000000000000000000000,
100000000000000000000000000000000000000000000000,
100000000000000000000000100000000000000000000000,
100000000000000000000000100000000000000000000000,
100000000000000000000000000000000000000000000000,
100000000000000000000000100000000000000000000000,
100000000000000000000000000000000000000000000000,
500000000000000000000000000080000000000000000000,
100000000000000000000000000000000000000000000000,
100000000000000000000000100000000000100000000000,
100000000000000000000000000000000000000000000000,
100000000000000000000000300000000000300000000000,
100000000000000000000000000000000000000000000000,
100000000000000000000000100000000000100000000000,
700000000000000000000000000000000000000000000000,
000000000000000000000000000000800000000000000000,
200000000000000000000000200000000000000000000000,
000000000000000000000000000000000000000000000000,
200000000000000000000000200000000000000000000000,
000000000000000000000000000000000000000000000000,
200000000000000000300000000000000000000000000000,
200000000000000000300000000000000000000000000000,
200000000000000000000000200000000000000000000000,
600000000000000000000080000000000000000000000000,
300000000000000000000000300000000000000000000000,
000000000000000000000000100000000000000000000000,
100000000000000000000000000000000000000000000000,
100000000000000000000000000000000000000000000000,
100000000000000000000000100000000000000000000000,
100000000000000000000000100000000000000000000000,
100000000000000000000000000000000000000000000000,
100000000000000000000000100000000000000000000000,
700000000000000000000000000000000000000000000000,
000000000000000000800000000000000000000000000000,
#GOGOSTART
500000000000000000000000000080000000000000000000,
100000000000000000000000100000000000000000000000,
100000000000000000000000000000000000000000000000,
200000000000200000000000200000000000000000000000,
500000000000000000000000000080000000000000000000,
100000000000000000000000100000000000000000000000,
100000000000000000000000200000000000000000000000,
200000000000200000000000200000000000000000000000,
500000000000000000000000000080000000000000000000,
100000000000000000000000100000000000000000000000,
100000000000000000000000000000000000000000000000,
200000000000200000000000200000000000000000000000,
500000000000000000000000000080000000000000000000,
100000000000000000000000000000000000000000000000,
100000000000000000000000200000000000000000000000,
300000000000300000000000300000000000000000000000,
300000000000000000000000000000000000000000000000,
300000000000000000000000000000000000000000000000,
300000000000000000000000000000000000000000000000,
300000000000000000000000000000000000000000000000,
100000000000000000000000100000000000000000000000,
100000000000000000000000100000000000000000000000,
900000000000000000000000000000000000000000000000,
000000000000000000000000000000000000000000000008,
#GOGOEND
#END
