//TJADB Project
TITLE:Colorful Party
TITLEJA:カラフル・パーティ
SUBTITLE:--HIMAWARI Channel
SUBTITLEJA:HIMAWARIちゃんねる
BPM:146
WAVE:Colorful Party.ogg
OFFSET:-0.218
DEMOSTART:58.925

COURSE:Oni
LEVEL:5
BALLOON:15,10,15
SCOREINIT:4380
SCOREDIFF:0
#START
100100202001,
100100202200,
100100202001,
100100202200,
100100100202,
1122,
1112,
100100101107,
,
8,
100100100101,
100100100101,
100000000000100000005000000000000000000008000000,
200202000000,
100100101101,
100100101100,
3232,
100101102202,
100100200101,
100100200101,
100000000000100000005000000000000000000008000000,
2222,
100100201101,
100100201105,
000000000000000000000000000000000000000000000008,
0001,
111111100200,
222222200100,
100100100101,
200200200202,
100100101002,
200200202000,
3333,
700000800202,
100100200102,
002202000200,
#GOGOSTART
300100102202,
101100101105,
000000000000000000000000000000000000000008000000,
101101102200,
300100102202,
101100101105,
000000000000000000000000000000000000000008000000,
101101102200,
100100101202,
100101102202,
101100101100,
100101002200,
500000000000000000000008000000000000100000001000,
1212,
300300300307,
000000000000000000000000000000000000000000000008,
#GOGOEND
#END

COURSE:Hard
LEVEL:4
BALLOON:14,7,12
SCOREINIT:7730
SCOREDIFF:0
#START
1110,
1120,
1110,
22,
1110,
1120,
11,
100100100007,
,
8,
1110,
1110,
2,
200202000000,
1110,
1110,
11,
1,
1110,
1110,
2,
2220,
1110,
100000100005,
000000000000000000000008,
,
101101100000,
202202200000,
1110,
1,
1110,
2220,
3333,
78,
200200200005,
000000000008000000000000,
#GOGOSTART
3112,
100100101105,
000000000000000000000008,
000202000000,
3112,
100100101105,
000000000000000000000008,
000202000000,
100100101100,
1110,
200200200101,
100101000100,
500000000008000000000000,
11,
300300300309,
000000000000000000000000000000000000000000000008,
#GOGOEND
#END

COURSE:Normal
LEVEL:2
BALLOON:9,5,8
SCOREINIT:13980
SCOREDIFF:
#START
1,
1,
1,
2,
11,
1,
1,
100000000007,
,
8,
11,
1,
2,
2,
11,
1,
1110,
1,
11,
1,
2,
2,
1110,
100000100005,
000000000000000000000008,
,
11,
22,
11,
1,
11,
22,
33,
78,
200000200005,
000000000008000000000000,
#GOGOSTART
3110,
100000100005,
000000000000000000000008,
02,
3110,
100000100005,
000000000000000000000008,
02,
1110,
11,
22,
2,
1,
11,
300000300009,
000000000000000000000000000000000000000000000008,
#GOGOEND
#END

COURSE:Easy
LEVEL:1
BALLOON:7,4,6
SCOREINIT:21170
SCOREDIFF:
#START
1,
1,
1,
1,
11,
1,
1,
100000000007,
,
8,
1,
1,
2,
,
1,
1,
11,
1,
1,
1,
2,
,
1,
100000100005,
000000000000000000000008,
,
1,
2,
11,
1,
1,
1,
33,
78,
2,
,
#GOGOSTART
31,
100000000005,
000000000000000000000008,
,
31,
100000000005,
000000000000000000000008,
,
1,
1,
22,
2,
1,
1,
300000000009,
000000000000000000000000000000000000000000000008,
#GOGOEND
#END
