//TJADB Project
TITLE:Hello, Worldooon‼
TITLEJA:Hello, Worldooon!!
SUBTITLE:--Capchii feat. Kuroa*
SUBTITLEJA:Capchii feat. Kuroa*
BPM:256
WAVE:Hello, Worldooon!!.ogg
OFFSET:-2.071
DEMOSTART:33.932 //shinuchi:
8200/4760/2720/1880/1010

COURSE:Edit
LEVEL:10
BALLOON:
SCOREINIT:360,1050
SCOREDIFF:88
#START
#MEASURE 8/4
#SCROLL 0.5
0, //1
#GOGOSTART
10002000102020100020201022222000,
10002010101020100010111020102020,
10002000102020100010200011112020,
10002010101020100010222010112220, //5
10002000102020100010201022222000,
10002010101020100010111020101122,
10002000102020100010200011112020,
10102010111122111010101011111110, //9
#GOGOEND
10002010200010102000111000001000,
00202000200010112010200020002220,
10102000201010200000222000001000,
10102000200010221011200020102020, //13
10002010200010102000222000001000,
10102000200011111010201020002020,
1021201120200030,
000000100000100000000000200000002000100000000000200000002000100010000000200000100000100100100000, //17
#MEASURE 4/4
#SCROLL 0.75
100201101201,
001200201200,
100201001202,
001200101200,
100201101201,
001200201200,
100201002201,
001200102200, //25
100000200001,
001200100200,
100222201002,
001201100200,
100221221221,
2222222222222222,
100003003004,
002200101200, //33
#GOGOSTART
101201111201,
002202100111,
101201001201,
002202201200,
300300101201,
000000001000200000001000100000000000100000100100,
101201111102,
000000002000200000002000100010001000200100100100, //41
101201111201,
002202100200,
301200302203,
002202101200,
300300101201,
002202101200,
1010101010202022,
2211112211112211, //49
#GOGOEND
10112210,
2010202010222222,
22102122,
1012121212121212, //53
100201100201,
002200100200,
100210002001,
002200101200,
100201100201,
002200100210,
002201100201,
001200201200, //61
100101200102,
001101100201,
001201200102,
0112,
100101200102,
001101100202,
001201101102,
001200111110, //69
32232230,
000200101010200100200200,
10211121,
0010202012021120,
32232230,
000100202020100200100100,
11212112,
0011201012111010, //77
#MEASURE 8/4
#SCROLL 0.5
22222222,
22222222,
30203222,
#MEASURE 4/4
#SCROLL 0.75
333333,
3,
#SCROLL 0.5
1021,
222200100100,
#SCROLL 0.75
30223203,
0022202010201020, //86
#SCROLL 1
#GOGOSTART
3000300010112010,
0010221011101020,
1010201022111020,
0020222011211121,
1010201020111020,
0010221012112020,
32223223,
0020222011122020, //94
3000300010112010,
0010221011112222,
11111111,
3020203022212220,
10221221,
0020102022222000,
12211121,
2022101011111110, //102
40211212,
1011201012221220,
11211212,
1011201011112220,
11211212,
1011201012222220,
11211212,
100000100100200000100000100010001000100000100000, //110
1111221111221111,
1111221111221111,
5,
000000000000000000000000000000000000000008000000,
#GOGOEND
3,
0,
0,
0,
0, //119
#END

COURSE:Oni
LEVEL:7
BALLOON:6,6,5
SCOREINIT:580,2000
SCOREDIFF:153
#START
#MEASURE 8/4
#SCROLL 0.5
0, //1
#GOGOSTART
1011220100201020,
1001120100102020,
1011220100201020,
1001120100102220, //5
1011220100201020,
1001120100102220,
1011220100201020,
1001120101102220, //9
#GOGOEND
1000001120100010,
1020101120101000,
1000001020110010,
0000001120102011, //13
1010201100100010,
2010101100102020,
1000001120110150,
000000000000000000000000000000000008000000000000200000002000000020000000200000000000100000100000, //17
100100200101001100200200,
100101001001001100200000,
100100200101001100200200,
100101001001001100200000, //21
700000000000000800000010000010100000200000200000,
100101001001001100200200,
100101001001000100100206,
000000000000000000000000000000000000000008000000000000000000000000000000100000000000100000000000, //25
#GOGOSTART
100200100201002200200200,
100101002002001100200200,
300300200202000100200100,
100100200101001100200200, //29
100200100201002200200200,
300000400003001100200200,
300300200202000100200100,
1110111010010020, //33
#GOGOEND
12212212,
21227008,
100100200101001100100200,
100101001001000200000200, //37
100100200101001100100101,
000200100101000200000200,
100101001101000200100105,
000000000000000000000000000000000000000000080000000000000000100000000000200000000000200000000000, //41
100000000202000100200105,
000000000000000000000000000000000000000000000000000000000000000000080000000000000000000000000000,
3004003000102020,
1011010700008010, //45
3004003000201020,
1011010100001010,
2000200200001020,
2022020200002020, //49
1000200110202020,
500000000000000000000000000000000000000000000008000000000000000000000000100000000000200000000000,
1000200200002020,
1021020102201020, //53
#GOGOSTART
3030112200101020,
1010201102201120,
1020102102202020,
3000400302201020, //57
3030110100201010,
1120111010110110,
500000000000000000000000000000000000000000000000000000000000000000000000000000000008000000000000,
1011120100102220, //61
1012120101201120,
1011120101102220,
1012120101201120,
1011120101102220, //65
1012120101201120,
500000000000000000000000000000000000000000000000000000000000000000000000000000000008000000000000,
#GOGOEND
3,
0,
0, //70
#END

COURSE:Hard
LEVEL:6
BALLOON:8,12,7,8,5,12
SCOREINIT:670,3030
SCOREDIFF:180
#START
#MEASURE 8/4
#SCROLL 0.5
0,
#GOGOSTART
1000220100202010,
1001110100202020,
1000220100202010,
1001110100202010,
1000220100202010,
1001110100202020,
1000220100202010,
1001110100202020, //9
#GOGOEND
1000001100100010,
2010201100202000,
10012101,
00011220,
1000201100100010,
2010101100202000,
1000001020100150,
000000000000000000000000000000000000000000000008000000000000000000000000000000000000000000000000, //17
100000200001000100200100,
500000000000000000000000000000000000000000000008000000000000000000000000000000000000000000000000,
100000200001000100200200,
500000000000000000000000000000000000000000000008000000000000000000000000000000000000000000000000,
200000200002000000200200,
70008022,
9009,
8, //25
#GOGOSTART
100000200001000100100200,
100101001001000000200200,
300300200101000100200100,
11210022,
100000200001000100200200,
300000400003000000200200,
300300200202000100200100,
1000000010010020, //33
#GOGOEND
10010020,
01004000,
100000200001000200100200,
70008202,
100000000000200000000010000000200000100000200700,
00000000000000008000020000002000,
100001000002000000200005,
000000000000000000000000000000000000000000080000000000000000100000000000200000000000200000000000, //41
100000000002000000200005,
000000000000000000000000000000000000000000000000000000000000000000080000000000000000000000000000,
3004003000002000,
1001010700008000,
3004003000001000,
2002020200001000,
2000000200001000,
2002020200002000,
10201022,
500000000000000000000000000000000000000000000008000000000000000000000000200000000000000000000000,
1000200200002020,
1000100100001020, //53
#GOGOSTART
3030111100102010,
11210021,
1000200100002020,
3000400300001020,
3030110100102010,
1000000020020010,
9009,
8, //61
1020120100202010,
1001110100202020,
1020120100202010,
1001110100202020,
1020120100202220,
1001110100202220,
#GOGOEND
3,
0,
0, //70
#END

COURSE:Normal
LEVEL:5
BALLOON:6,10,5,6,3,10
SCOREINIT:900,5570
SCOREDIFF:295
#START
#MEASURE 8/4
#SCROLL 0.5
0,
#GOGOSTART
1000000100001000,
1000000100002000,
1000000100001000,
1000000100002000,
1000000200001000,
1000000200002000,
1000000200001000,
1000000200002000, //9
#GOGOEND
10000101,
10000110,
10000101,
00001110,
10000101,
10000110,
10011105,
000000000000000000000000000000000000000000000008000000000000000000000000000000000000000000000000, //17
1202,
500000000000000000000000000000000000000000000008000000000000000000000000000000000000000000000000,
1202,
500000000000000000000000000000000000000000000008000000000000000000000000000000000000000000000000,
2202,
78,
9009,
8, //25
#GOGOSTART
100000100001000000200000,
100001001001000000200000,
300300100001000000200000,
10220020,
100000100001000000100000,
400000400004000000100000,
300300100001000000200000,
12, //33
#GOGOEND
10010010,
01004000,
100000200001000000100100,
78, //37
100000000000200000000010000000000000100000100700,
08,
100000000001000000100005,
000000000000000000000000000000000000000000080000000000000000000000000000200000000000000000000000, //41
100000000002000000200005,
000000000000000000000000000000000000000000000000000000000000000000080000000000000000000000000000,
3003003000000000,
1000000700008000,
3003003000000000,
1000000100000000,
2000000200000000,
2000000200000000,
1012,
500000000000000000000000000000000000000000000008000000000000000000000000000000000000000000000000,
2000200200000000,
1000100100002000, //53
#GOGOSTART
3030100100002000,
10220020,
1000100100001000,
4000400400001000,
3030100100002000,
1000000010010010,
9009,
8, //61
1000000100001000,
1000000100002000,
1000000100001000,
1000000100002000,
1000000200001000,
1000000200002000,
#GOGOEND
3,
0,
0, //70
#END

COURSE:Easy
LEVEL:3
BALLOON:5,9,5,5,8
SCOREINIT:870,9550
SCOREDIFF:448
#START
#MEASURE 8/4
#SCROLL 0.5
0,
#GOGOSTART
1000000100000000,
1000000100000000,
1000000100000000,
1000000100000000,
1000000200000000,
1000000100000000,
1000000200000000,
1000000100000000, //9
#GOGOEND
10000100,
1,
10000001,
01,
10000100,
1,
10001005,
000000000000000000000000000000000000000000000008000000000000000000000000000000000000000000000000, //17
1002,
500000000000000000000000000000000000000000000008000000000000000000000000000000000000000000000000,
1002,
500000000000000000000000000000000000000000000008000000000000000000000000000000000000000000000000,
2002,
78,
9009,
8, //25
#GOGOSTART
100000000001000000000000,
100000000001000000000000,
3101,
1100,
100000000001000000000000,
300000000001000000000000,
3101,
12, //33
#GOGOEND
1001,
04,
1001,
78,
2000000000002007,
08,
100000000001000000000005,
000000000000000000000000000000000000000000080000000000000000000000000000000000000000000000000000, //41
100000000001000000000005,
000000000000000000000000000000000000000000000000000000000000000000080000000000000000000000000000,
30030000,
1,
30030000,
1,
2,
2,
11,
500000000000000000000000000000000000000000000008000000000000000000000000000000000000000000000000,
2000000200000000,
1000000100000000, //53
#GOGOSTART
3101,
1101,
1000000100000000,
4000000400000000,
3101,
12,
9009,
8, //61
1000000100000000,
1000000100000000,
1000000100000000,
1000000100000000,
1000000200000000,
1000000100000000,
#GOGOEND
3,
0,
0, //70
#END
