//TJADB Project
TITLE:Walking with you
TITLEJA:Walking with you
SUBTITLE:--Novelbright
BPM:185
WAVE:Walking with you.ogg
OFFSET:-1.463
DEMOSTART:74.071

COURSE:Oni
LEVEL:8
BALLOON:22,22,60
SCOREINIT:640
SCOREDIFF:160
#START
2022,
2220,
2222,
2220222022102000,
10210122,
11210122,
1000201000102220,
1000101111102220,
#GOGOSTART
6,
000000000000000000000008000000000000000000000000,
7,
00000800,
22122122,
1020201022201020,
1110202010102011,
12122212,
#GOGOEND
10210122,
10211202,
10210121,
11210220,
10211202,
11210121,
10210120,
3436,
,
000000000000000000000008000000000000000000000000,
7,
00000800,
21122212,
12212121,
1110202011102020,
11212210,
10210121,
1022201010200020,
10210122,
33040340,
10201121,
1022201000102010,
10210121,
3030003022201010,
10221022,
12012212,
10221022,
1020001020201022,
1000202010202011,
12221022,
30433403,
30433440,
11212020,
1022201020102000,
11212020,
1022201020202000,
11212020,
1010201022202220,
600000000000000000000000000000000000000008000000,
3000111011112220,
#GOGOSTART
1110201011102020,
1110201110102000,
1110222011102220,
1110111010002220,
1010202010102220,
11212020,
1110201110201110,
2000201011112220,
1110201011102020,
1110201110001020,
1110222011102220,
1110111010002220,
1110202010201020,
1110201020002000,
1112201112201112,
2000202210102000,
#GOGOEND
7,
,
,
000000000000000000000000000000000000000000000008,
#END

COURSE:Hard
LEVEL:5
BALLOON:16,16,45
SCOREINIT:690
SCOREDIFF:175
#START
22,
2220,
2220,
20202120,
10210120,
10210120,
10210120,
1333,
#GOGOSTART
6,
000000000000000000000008000000000000000000000000,
7,
00000800,
22122010,
12212010,
10221121,
12122010,
#GOGOEND
10210120,
10211120,
10210120,
10210120,
10201120,
10210120,
10210120,
3336,
0,
000000000000000000000008000000000000000000000000,
7,
00000800,
21122010,
12212020,
11221012,
11212210,
10201120,
10211120,
10210120,
33030330,
10201120,
10210121,
10210120,
33030330,
10202022,
12012020,
10202022,
12012210,
10202022,
12021020,
30303300,
30303330,
11100020,
11102020,
11100020,
11102020,
11102020,
11102220,
6,
000000000000000000000000000000000008000000000000,
#GOGOSTART
10201120,
11211020,
11201120,
11212020,
10221022,
11212020,
6,
000000000000000000000000000008000000000000000000,
10201120,
11211012,
11201120,
11212020,
30221212,
11212020,
30030030,
44,
#GOGOEND
7,
0,
0,
000000000000000000000008000000000000000000000000,
#END

COURSE:Normal
LEVEL:4
BALLOON:13,13,30
SCOREINIT:870
SCOREDIFF:275
#START
2,
2,
22,
22,
1102,
1102,
1102,
1333,
#GOGOSTART
6,
000000000000000000000008000000000000000000000000,
7,
00000800,
1120,
1120,
1122,
1120,
#GOGOEND
1,
1011,
1,
10010010,
11,
10110000,
10110000,
3336,
0,
000000000000000000000008000000000000000000000000,
7,
00000800,
1220,
1220,
1222,
1220,
11,
1011,
1,
30030030,
11,
10110000,
10110000,
30030030,
22,
2022,
22,
2022,
12,
2022,
30003300,
3033,
1102,
1122,
1102,
1122,
1122,
1122,
6,
000000000000000000000000000000000008000000000000,
#GOGOSTART
1011,
1220,
1122,
1120,
10111020,
11102020,
6,
000000000000000000000000000008000000000000000000,
1022,
1120,
1122,
1120,
30111020,
11102020,
3,
44,
#GOGOEND
7,
0,
0,
000000000000000000000008000000000000000000000000,
#END

COURSE:Easy
LEVEL:2
BALLOON:9,9,4,27
SCOREINIT:850
SCOREDIFF:385
#START
2,
0,
2,
2,
1,
1,
1,
0333,
#GOGOSTART
6,
000000000000000000000008000000000000000000000000,
7,
00000800,
1,
1,
11,
1110,
#GOGOEND
1,
11,
1,
1,
11,
1,
1,
3336,
0,
000000000000000000000008000000000000000000000000,
7,
00000800,
11,
22,
12,
1110,
1,
11,
1,
3,
11,
1,
1,
700000000000000000000000000000080000000000000000,
2,
22,
2,
22,
1,
22,
33,
33,
1100,
1100,
2200,
2200,
1100,
1100,
6,
000000000000000000000000000008000000000000000000,
#GOGOSTART
11,
1110,
11,
1110,
12,
12,
6,
000000000000000000000000000008000000000000000000,
11,
1110,
11,
1110,
32,
12,
3,
44,
#GOGOEND
7,
0,
0,
000000000000000000000008000000000000000000000000,
#END
