//TJADB Project
TITLE:Dance “Enma”
TITLEJA:鼓舞曲「閻魔」
SUBTITLE:--Maoki Yamamoto
SUBTITLEJA:山本真央樹
BPM:185
WAVE:Dance “Enma”.ogg
OFFSET:-0.818
DEMOSTART:95.844

COURSE:Oni
LEVEL:10
BALLOON:28
SCOREINIT:1020
SCOREDIFF:0
#START
#MEASURE 3/4
300000000000000000000000300000000000,
300000000000000000000000300000000000,
300000000000300000000000300000000000,
700000000000000000000000000000000000,
000000000000000000000000000080000000,
#GOGOSTART
100000002000100000002000100020001000,
100000002000100000002000100020001000,
#MEASURE 4/4
100000002000100010002000100020001000100000002000,
#MEASURE 3/4
100000002000101010001000101010001000,
#GOGOEND
100010002000100020001000100010002000,
100020002000100020001000200010002000,
#MEASURE 4/4
200010002000100020002000100000000000400000000000,
#MEASURE 3/4
300000000000100020001000100010002000,
100020001000200010002000200020001000,
200020001000200010002000100020002000,
200000002000100010001000200010001000,
200000002000100010001000200100100100,
200000100100200000100100200100100100,
200020001000100020001000200020001000,
200000002000100010001000200010001000,
200000002000100010001000200100100100,
200100100200100100200200200100100100,
#MEASURE 4/4
200020001000200020001000200020001000100010001000,
#GOGOSTART
#MEASURE 3/4
100000002000100000002000100020001000,
100000002000100000002000100020001000,
100000002000100010002000100020001000,
100000002000100000002000100100100100,
#MEASURE 4/4
100100100100100000000000000030000000400000002000,
#GOGOEND
#MEASURE 3/4
100010002000100020001000100010002000,
100020002000100020001000200010002000,
#MEASURE 4/4
200010002000100020002000100000000000400000000000,
#MEASURE 3/4
300000000000100020001000100010002000,
100020001000200010002000200020001000,
200020001000200010002000100020002000,
500000000000000000000000000000000000,
000000000000000000000000000008000000,
300000000000000000000000000000000000,
#MEASURE 4/4
000000000000000000000000000000000000000000000000,
#MEASURE 3/4
#SCROLL 0.5
100000000000200000100000100000000000,
100000000000200000200200100000100000,
100000000000200200200200100000000000,
100000000200100000000200100200200200,
100000000000200000100000100000000000,
100000000000200000200200100000100000,
100000000000200200200200100000000000,
100000000200100000000200100200200200,
100000000000200000100000100000000000,
100000000000200000200200100000100000,
100000000000200200200200100000000000,
100000000200100000000200100200200200,
100000000000200000100000100000000000,
100000000000200000200200100000000000,
100000000000200200200200100000000000,
100000000200100000000200100200200200,
100000200000200000100000100000000000,
100000200000200000200200100000100000,
100000200000200200200200100000200000,
100200200200100200200100100200100200,
100000200000200000100000100000000000,
100000200000200000200200100100100100,
100000200000200200200200100000200000,
100200200200100200200000100000100000,
100000000000200000100000100000000000,
100000000000200000200200100000100000,
100000000000200200200200100000000000,
100000000200100000000200100200200200,
100000000000200000100000200000100000,
100000000000200000200200100100100100,
100000000000200200200200100000000000,
100000100100100000100100100000100000,
#GOGOSTART
#SCROLL 1
100000002000100000002000100020001000,
100000002000100000002000100020001000,
#GOGOEND
100000000000100020001000100020001000,
100020001000100020001000100020001000,
100020001000100020001000100020001000,
#GOGOSTART
100000002000100000002000100020001000,
100000002000100000002000100020001000,
#GOGOEND
100000000000100020001000200020001000,
100020001000200020001000100020001000,
100200100100200200100100100200100100,
100000000000200000200000200000000000,
100000000000200000000000100000000000,
100000000000200000200000200000000000,
100000000000200000000000100000100000,
100000000000200000100000100000200000,
100000000000200000100100100000100000,
100000000000200000100000100000200000,
100000000000100100100000100000100000,
200000100000200000000000200100100100,
200000100000200000100000200000000000,
200000000000200100100100200000100000,
200000000000200100100100200000000000,
200000200000200000200000200000200000,
200000202020200000200000200000200200,
100000100000100000100100100100100100,
100100100100101010101010101010101010,
#GOGOSTART
100000200200100000100200100000200200,
100000100200100000200200100000102020,
100000200200100000100200100000200200,
100100200200100200200200100000102020,
100000100200100000200200100000100200,
100000200200100000100200100000202020,
100000100200100000200200100000100200,
100200200200100100200200100000202020,
100000200200100000100200100000200200,
100000100200100000200200100100102020,
100000200200100000100200100000200200,
100100200200100200200200100100102020,
100000100200100000200200100000100200,
100000200200100000100200100100100100,
100000200000200000100000200200200000,
100000100100100100100100101010101010,
#GOGOEND
200000200000000000200000200000200200,
200000200000200000200200200000202020,
200000200000200200200200200000200000,
200200200200100200200100100100100100,
100000002000100000002000100000002000,
100000002000100000002000100000002000,
100000001000100000001000100000001000,
101010001000101010001000101010001000,
#GOGOSTART
100000002000100000002000100020001000,
100000002000100000002000100020001000,
#MEASURE 4/4
100000002000100010002000100020001000100000002000,
#MEASURE 3/4
100000002000101010001000101010001000,
#GOGOEND
100010002000100020001000100010002000,
100020002000100020001000200010002000,
#MEASURE 5/4
200010002000100020002000100000000000400000000000000000000000,
#GOGOSTART
#MEASURE 3/4
#BPMCHANGE 200
#SCROLL 1.05
400000001000100020002000100020002000,
#SCROLL 1.2
200000001000100020002000100020002000,
#SCROLL 1.45
200000100100100100200200100100200200,
#SCROLL 1.7
200000100100100100200200100100200200,
#SCROLL 1.9
500000000000000000000000000000000000,
#BARLINEOFF
000000000000000000000000000000000000,
000000000000000000000000000000000008,
#GOGOEND
000000000000000000000000000000000000,
000000000000000000000000000000000000,
000000000000000000000000000000000000,
#SCROLL 1.6
000000000000000000000000000100100100,
#GOGOSTART
200000000000000000000000000000000000,
#GOGOEND
#END

COURSE:Hard
LEVEL:8
BALLOON:19,19,65
SCOREINIT:1800
SCOREDIFF:0
#START
#MEASURE 3/4
300000000000000000000000300000000000,
300000000000000000000000300000000000,
300000000000300000000000300000000000,
700000000000000000000000000000000000,
000000000000000000000000000800000000,
#GOGOSTART
100000001000100000001000200000001000,
100000001000100000001000200000001000,
#MEASURE 4/4
100000001000100010001000200000001000100000001000,
#MEASURE 3/4
200000000000100010001000100010001000,
#GOGOEND
100000000000200000000000200000000000,
200000000000200000000000200000000000,
#MEASURE 4/4
200000000000200000000000300000000000400000000000,
#MEASURE 3/4
300000000000200000000000200000000000,
200000000000200000000000200000000000,
200000000000200000000000200000000000,
200000002000200000001000100000000000,
200000002000200000001000100000000000,
200000001000100000002000200000000000,
200000001000100000001000100000000000,
200000002000200000001000100000000000,
200000002000200000001000100000000000,
200000001000100000002000200000000000,
#MEASURE 4/4
500000000000000000000000000000000000000080000000,
#MEASURE 3/4
#GOGOSTART
100000001000100000001000200000000000,
100000001000100000001000200000000000,
100000001000100010001000200000001000,
100000000000200000000000500000000000,
#MEASURE 4/4
000000000080000000000000000030000000400000002000,
#MEASURE 3/4
#GOGOEND
200000000000200000000000200000000000,
200000000000200000000000200000000000,
#MEASURE 4/4
200000000000200000000000300000000000400000000000,
#MEASURE 3/4
300000000000200000000000200000000000,
200000000000200000000000200000000000,
200000000000200000000000200000000000,
500000000000000000000000000000000000,
000000000000000000000000000080000000,
300000000000000000000000000000000000,
#MEASURE 4/4
000000000000000000000000000000000000000000000000,
#MEASURE 3/4
100000000000200000100000100000000000,
100000000000200000200000100000100000,
100000000000200000200000100000000000,
100000000000200000200000100000200000,
100000000000200000100000100000000000,
100000000000200000200000100000100000,
100000000000200000200000100000000000,
100000000000200000200000100000200000,
100000000000200000100000100000000000,
100000000000200000200000100000100000,
100000000000200000200000100000000000,
100000000000200000200000100000200000,
100000000000200000100000100000000000,
100000000000200000200000100000100000,
100000000000200000200000100000000000,
100000000000200000200000100000200000,
100000000000200000100000100000000000,
100000200000200000200000100000100000,
100000000000200000200000100000200000,
100000100000200000200000100000100000,
100000000000200000100000100000000000,
100000200000200000200000100000100000,
100000000000200000200000100000200000,
100000200000200000200000100000100000,
100000000000200000100000100000000000,
100000000000200000200000100000100000,
100000000000200000200000100000000000,
100000000000200000200000100000200000,
100000000000200000100000200000100000,
100000000000200000200000100000100000,
100000000000200000200000100000000000,
500000000000000000000080000000000000,
#GOGOSTART
100000001000100000001000100000001000,
100000001000100000001000100000001000,
#GOGOEND
100000000000200000000000200000000000,
200000000000200000000000200000000000,
200000000000200000000000200000000000,
#GOGOSTART
200000002000200000002000200000002000,
200000002000200000002000200000002000,
#GOGOEND
200000000000200000000000200000000000,
200000000000200000000000200000000000,
500000000000000000000000000080000000,
100000000000200000200000200000000000,
100000000000200000000000100000000000,
100000000000200000200000200000000000,
100000000000200000000000100000100000,
100000000000200000100000100000200000,
100000000000200000100000100000100000,
100000000000200000100000100000200000,
100000000000200000100000100000100000,
200000100000200000000000200000100000,
200000100000200000100000200000000000,
200000000000200000100000200000100000,
200000000000200000100000200000000000,
200000200000200000200000200000200000,
200000200200200000200000200000200000,
700000000000000000000000000000000000,
000000000000000000000000000800000000,
#GOGOSTART
100000100000100000000000100000200000,
100000100000100000000000100000100100,
100000100000100000000000100000200000,
100100100000100100100000100000000000,
100000100000100000000000100000200000,
100000100000100000000000100000100100,
100000100000100000000000100000200000,
100100100000200200200000100000000000,
100000100000200000000000100000200000,
100000100000200000000000100000100100,
100000100000200000000000100000200000,
100100100000100100100000100000000000,
100000100000200000000000100000200000,
100000100000200000000000100000100100,
100000200000200000100000200200200000,
100000500000000000000000000080000000,
#GOGOEND
200000200000000000200000200000200000,
200000200000000000200000200000200000,
200000200000000000200000200000200000,
200000200000000000000000200000000000,
100000002000100000002000100000002000,
100000002000100000002000100000002000,
100000001000100000001000100000001000,
500000000000000000000000000080000000,
#GOGOSTART
100000001000100000001000200000001000,
100000001000100000001000200000001000,
#MEASURE 4/4
100000001000100010001000200000001000100000001000,
#MEASURE 3/4
200000000000100010001000100010001000,
#GOGOEND
100000000000200000000000200000000000,
200000000000200000000000200000000000,
#MEASURE 5/4
200000000000200000000000300000000000400000000000000000000000,
#MEASURE 3/4
#GOGOSTART
#BPMCHANGE 200
900000000000000000000000000000000000,
000000000000000000000000000000000000,
000000000000000000000000000000000000,
000000000000000000000000000000000000,
000000000000000000000000000000000000,
#BARLINEOFF
000000000000000000000000000000000000,
000000000000000000000000000000800000,
#GOGOEND
000000000000000000000000000000000000,
000000000000000000000000000000000000,
000000000000000000000000000000000000,
000000000000000000000000000000000000,
#GOGOSTART
300000000000000000000000000000000000,
#GOGOEND
000000000000000000000000000000000000,
#END

COURSE:Normal
LEVEL:7
BALLOON:11,11,43
SCOREINIT:2690
SCOREDIFF:0
#START
#MEASURE 3/4
300000000000000000000000300000000000,
300000000000000000000000300000000000,
300000000000300000000000300000000000,
700000000000000000000000000000000000,
000000000000000000000000000800000000,
#GOGOSTART
100000001000100000000000100000000000,
100000001000100000000000100000000000,
#MEASURE 4/4
100000001000100000000000200000000000100000000000,
#MEASURE 3/4
200000000000100000000000100000000000,
#GOGOEND
100000000000200000000000200000000000,
200000000000200000000000200000000000,
#MEASURE 4/4
200000000000200000000000300000000000400000000000,
#MEASURE 3/4
300000000000200000000000200000000000,
200000000000200000000000200000000000,
200000000000200000000000200000000000,
100000001000100000000000100000000000,
100000001000100000000000100000000000,
200000002000200000000000200000000000,
100000001000100000000000100000000000,
100000001000100000000000100000000000,
100000001000100000000000100000000000,
200000002000200000000000200000000000,
#MEASURE 4/4
500000000000000000000000000000000080000000000000,
#MEASURE 3/4
#GOGOSTART
100000001000100000000000100000000000,
100000001000100000000000100000000000,
100000001000100000000000200000000000,
100000000000200000000000500000000000,
#MEASURE 4/4
000000000080000000000000000040000000400000004000,
#MEASURE 3/4
#GOGOEND
000000000000200000000000200000000000,
200000000000200000000000200000000000,
#MEASURE 4/4
200000000000200000000000300000000000400000000000,
#MEASURE 3/4
300000000000200000000000200000000000,
200000000000200000000000200000000000,
200000000000200000000000200000000000,
500000000000000000000000000000000000,
000000000000000000000080000000000000,
300000000000000000000000000000000000,
#MEASURE 4/4
000000000000000000000000000000000000000000000000,
#MEASURE 3/4
100000000000000000100000100000000000,
100000000000000000100000100000000000,
100000000000000000100000100000000000,
100000000000100000000000100000000000,
100000000000000000100000100000000000,
100000000000000000100000100000000000,
100000000000000000100000100000000000,
100000000000100000000000100000000000,
100000000000000000100000100000000000,
200000000000000000100000100000000000,
100000000000000000100000100000000000,
200000000000100000000000200000000000,
100000000000000000100000100000000000,
200000000000000000100000100000000000,
100000000000000000100000100000000000,
500000000000000000000080000000000000,
100000000000200000000000100000000000,
100000000000200000000000100000100000,
100000000000200000000000100000000000,
100000000000200000000000100000100000,
100000000000200000000000100000000000,
100000000000200000000000100000100000,
100000000000200000000000100000000000,
100000000000200000000000100000100000,
100000000000000000000000100000000000,
200000000000000000000000100000100000,
100000000000000000000000100000000000,
200000000000000000000000100000100000,
100000000000000000000000100000000000,
200000000000000000000000100000100000,
100000000000000000000000100000000000,
500000000000000000000080000000000000,
#GOGOSTART
100000001000100000000000100000000000,
100000001000100000000000100000000000,
#GOGOEND
100000000000200000000000200000000000,
200000000000200000000000200000000000,
200000000000200000000000200000000000,
#GOGOSTART
100000001000100000000000200000000000,
100000001000100000000000200000000000,
#GOGOEND
200000000000200000000000200000000000,
200000000000200000000000200000000000,
500000000000000000000080000000000000,
100000000000200000000000200000000000,
100000000000200000000000100000000000,
100000000000200000000000200000000000,
100000000000200000000000100000000000,
100000000000200000200000200000000000,
100000000000200000200000100000000000,
100000000000200000200000200000000000,
100000000000200000200000100000000000,
200000000000200000000000200000000000,
200000000000200000000000200000000000,
200000000000200000000000200000000000,
200000000000200000000000200000000000,
500000000000000000000000000000000000,
000000000000000000000080000000000000,
700000000000000000000000000000000000,
000000000000000000000000000800000000,
#GOGOSTART
100000100000100000000000200000000000,
100000100000100000000000200000000000,
100000100000100000000000200000000000,
100000200000100000200000100000000000,
100000100000100000000000200000000000,
100000100000100000000000200000000000,
100000100000100000000000200000000000,
100000200000100000200000100000000000,
100000100000200000000000200000000000,
100000100000200000000000200000000000,
100000100000200000000000200000000000,
100000200000100000200000100000000000,
100000100000200000000000200000000000,
100000100000200000000000200000000000,
500000000000000000000000000000000000,
000000000000000000000080000000000000,
#GOGOEND
200000000000000000000000200000000000,
200000000000000000000000200000000000,
200000000000000000000000200000000000,
200000000000000000000000200000000000,
100000000000100000000000100000000000,
100000000000100000000000100000000000,
500000000000000000000000000000000000,
000000000000000000000080000000000000,
#GOGOSTART
100000001000100000000000200000000000,
100000001000100000000000200000000000,
#MEASURE 4/4
100000001000100000000000200000000000100000000000,
#MEASURE 3/4
200000000000100000000000100000000000,
#GOGOEND
100000000000200000000000200000000000,
200000000000200000000000200000000000,
#MEASURE 5/4
200000000000200000000000300000000000400000000000000000000000,
#MEASURE 3/4
#GOGOSTART
#BPMCHANGE 200
900000000000000000000000000000000000,
000000000000000000000000000000000000,
000000000000000000000000000000000000,
000000000000000000000000000000000000,
000000000000000000000000000000000000,
#BARLINEOFF
000000000000000000000000000000000000,
000000000000000000000000000000800000,
#GOGOEND
000000000000000000000000000000000000,
000000000000000000000000000000000000,
000000000000000000000000000000000000,
000000000000000000000000000000000000,
#GOGOSTART
300000000000000000000000000000000000,
#GOGOEND
000000000000000000000000000000000000,
#END

COURSE:Easy
LEVEL:5
BALLOON:8,8,33
SCOREINIT:4740
SCOREDIFF:0
#START
#MEASURE 3/4
300000000000000000000000300000000000,
300000000000000000000000300000000000,
300000000000300000000000300000000000,
700000000000000000000000000000000000,
000000000000000000000000000800000000,
#GOGOSTART
100000000000100000000000100000000000,
100000000000100000000000100000000000,
#MEASURE 4/4
100000000000100000000000100000000000100000000000,
#MEASURE 3/4
100000000000500000000000000000000080,
#GOGOEND
000000000000000000000000000000000000,
000000000000000000000000000000000000,
#MEASURE 4/4
000000000000000000000000300000000000300000000000,
#MEASURE 3/4
300000000000000000000000000000000000,
000000000000000000000000000000000000,
000000000000000000000000000000000000,
100000000000000000000000100000000000,
100000000000000000000000100000000000,
200000000000000000000000200000000000,
100000000000000000000000100000000000,
100000000000000000000000100000000000,
100000000000000000000000100000000000,
200000000000000000000000200000000000,
#MEASURE 4/4
500000000000000000000000000080000000000000000000,
#MEASURE 3/4
#GOGOSTART
100000000000100000000000100000000000,
100000000000100000000000100000000000,
100000000000100000000000100000000000,
100000000000100000000000500000000000,
#MEASURE 4/4
000000000000000000000000000000000000000000000080,
#MEASURE 3/4
#GOGOEND
000000000000000000000000000000000000,
000000000000000000000000000000000000,
#MEASURE 4/4
000000000000000000000000300000000000300000000000,
#MEASURE 3/4
300000000000000000000000000000000000,
000000000000000000000000000000000000,
000000000000000000000000000000000000,
500000000000000000000000000000000000,
000000000000000000000000000000000080,
000000000000000000000000000000000000,
#MEASURE 4/4
000000000000000000000000000000000000000000000000,
#MEASURE 3/4
100000000000000000000000100000000000,
100000000000000000000000100000000000,
100000000000000000000000100000000000,
100000000000000000000000100000000000,
100000000000000000000000100000000000,
100000000000000000000000100000000000,
100000000000000000000000100000000000,
100000000000000000000000100000000000,
100000000000000000000000100000000000,
200000000000000000000000200000000000,
100000000000000000000000100000000000,
200000000000000000000000200000000000,
100000000000000000000000100000000000,
200000000000000000000000200000000000,
100000000000000000000000100000000000,
200000000000000000000000000000000000,
100000000000000000000000100000000000,
100000000000100000000000100000000000,
100000000000000000000000100000000000,
100000000000100000000000100000000000,
100000000000000000000000100000000000,
100000000000100000000000100000000000,
100000000000000000000000100000000000,
100000000000100000000000100000000000,
100000000000000000000000100000000000,
200000000000000000000000200000000000,
100000000000000000000000100000000000,
200000000000000000000000200000000000,
100000000000000000000000100000000000,
200000000000000000000000200000000000,
100000000000000000000000100000000000,
200000000000000000000000000000000000,
#GOGOSTART
100000000000100000000000100000000000,
100000000000100000000000100000000000,
#GOGOEND
100000000000500000000000000000000000,
000000000000000000000000000000000000,
000000000000000080000000000000000000,
#GOGOSTART
100000000000100000000000100000000000,
100000000000100000000000100000000000,
#GOGOEND
100000000000500000000000000000000000,
000000000000000000000000000000000000,
000000000000000000000000000080000000,
000000000000200000000000200000000000,
000000000000200000000000200000000000,
000000000000200000000000200000000000,
000000000000200000000000200000000000,
000000000000200000000000200000000000,
000000000000200000000000100000000000,
000000000000200000000000200000000000,
000000000000200000000000100000000000,
000000000000200000000000200000000000,
000000000000200000000000200000000000,
000000000000200000000000200000000000,
000000000000200000000000200000000000,
500000000000000000000000000000000000,
000000000000000000000080000000000000,
700000000000000000000000000000000000,
000000000000000000000000000800000000,
#GOGOSTART
100000000000100000000000000000000000,
100000000000100000000000000000000000,
100000000000100000000000000000000000,
100000000000100000000000100000000000,
100000000000100000000000000000000000,
100000000000100000000000000000000000,
100000000000100000000000000000000000,
100000000000100000000000100000000000,
100000000000200000000000000000000000,
100000000000200000000000000000000000,
100000000000200000000000000000000000,
100000000000100000000000100000000000,
100000000000200000000000000000000000,
100000000000200000000000000000000000,
500000000000000000000000000000000000,
000000000000000080000000000000000000,
#GOGOEND
200000000000000000000000000000000000,
200000000000000000000000000000000000,
200000000000000000000000000000000000,
200000000000000000000000000000000000,
100000000000100000000000100000000000,
100000000000100000000000100000000000,
500000000000000000000000000000000000,
000000000000000080000000000000000000,
#GOGOSTART
100000000000100000000000100000000000,
100000000000100000000000100000000000,
#MEASURE 4/4
100000000000100000000000100000000000100000000000,
#MEASURE 3/4
100000000000500000000000000000000080,
#GOGOEND
000000000000000000000000000000000000,
000000000000000000000000000000000000,
#MEASURE 5/4
000000000000000000000000300000000000300000000000000000000000,
#MEASURE 3/4
#GOGOSTART
#BPMCHANGE 200
900000000000000000000000000000000000,
000000000000000000000000000000000000,
000000000000000000000000000000000000,
000000000000000000000000000000000000,
000000000000000000000000000000000000,
#BARLINEOFF
000000000000000000000000000000000000,
000000000000000000000000000000800000,
#GOGOEND
000000000000000000000000000000000000,
000000000000000000000000000000000000,
000000000000000000000000000000000000,
000000000000000000000000000000000000,
#GOGOSTART
300000000000000000000000000000000000,
#GOGOEND
000000000000000000000000000000000000,
#END
