//TJADB Project
TITLE:Dragon of Time ~Kokuryu~
TITLEJA:刻竜 ~Kokuryu~
SUBTITLE:--Azu♪
SUBTITLEJA:あず♪
BPM:120
WAVE:Dragon of Time Kokuryu.ogg
OFFSET:-2.179
DEMOSTART:16.175 //Shinuchi:
4520/2740/1840/1040/-

COURSE:Edit
LEVEL:10
BALLOON:
SCOREINIT:860
SCOREDIFF:0
#START
400000000000000000200000300000000002200000100000,
4000022030002210,
400000000000200020002000100200200200100200100200,
101010200100200200100200101010200100200200100200,
#MEASURE 1/4
#BPMCHANGE 60
#SCROLL 3
#GOGOSTART
3,
#SCROLL 2
0,
0,
0,
0,
#GOGOEND
#BARLINEOFF
#MEASURE 4/4
#BPMCHANGE 240
#SCROLL 5
4, //10
#BARLINEON
#SCROLL 1
1010201110102011,
2010201121102030,
0020111211102012,
1112101121102030,
0010201110102011,
2010201121102030,
0020111211102012,
1112101121102030, //18
0011202011212010,
1121201040400010,
0012202012101012,
2020121010222030,
0011104011102220,
1122101022222030,
2222103022211030,
2211103021103000, //26
#SCROLL 0.75
1110201120102011,
1011202211102011,
2010201122102021,
1010201040004000,
1110201120102011,
1011202211102011,
2211102011102011,
1020111021112000,
#SCROLL 1
3022221000112000,
2210001122112210,
3022221000112000,
2210001122221222, //38
#MEASURE 3/4
102222100011,
202222100011,
202222100011,
202222111122,
101210201022,
101210201022,
101210201020,
111111111111111111, //46
110100000220000200,
110100000220000200,
110100000220000200,
110200000220100200,
110100000220100200,
110100000220100200,
110100000220100200,
101000200000000000202000100100200000, //54
110100100200100200,
110100100200100200,
110100100200100200,
220100200220100200,
110100100200100200,
101000100000100000200000100000200200,
203000400011,
112211212120, //62
112211211,
121211221,
112211211,
121211211,
112211211,
121122121,
201110201110201110,
#MEASURE 2/4
201110201110, //70
#MEASURE 3/4
122112111,
212112122,
102220102220102220,
102220102220102220,
#MEASURE 4/4
1011201110102011,
1011201110112222,
2012201120102011,
2011201122122210,
1222201222201222,
2012222012221222,
1122221122221122,
#MEASURE 2/4
22112220, //82
#MEASURE 1/4
#BPMCHANGE 60
#SCROLL 6
#GOGOSTART
3,
#SCROLL 2
0,
0,
0,
0,
#GOGOEND
#BARLINEOFF
#MEASURE 4/4
#BPMCHANGE 240
#SCROLL 5
4, //88
#BARLINEON
#MEASURE 3/4
#SCROLL 1
222020100022,
101022221010,
222020100022,
101022221110,
222020100022,
101022221010,
#MEASURE 4/4
2011201021102011,
2010211020112000, //96
3000201021102010,
2210201021102000,
3000201021102010,
2211201021112000,
3000211020221010,
2210201021112110,
2012101020121010,
2012101020121010,
2212101022121010,
200200100200100010002000100010002000100010002000, //106
#MEASURE 3/4
33,
33,
33,
#MEASURE 3/8
3, //110
#MEASURE 1/32
#SCROLL 0.5
1,
#SCROLL 0.52
0,
#SCROLL 0.54
1,
#SCROLL 0.56
0,
#SCROLL 0.58
1,
#SCROLL 0.61
0,
#SCROLL 0.63
1,
#SCROLL 0.65
0,
#SCROLL 0.68
1,
#SCROLL 0.71
0,
#SCROLL 0.73
1,
#SCROLL 0.76
0,
#SCROLL 0.79
1,
#SCROLL 0.82
0,
#SCROLL 0.86
1,
#SCROLL 0.89
0,
#SCROLL 0.93
1,
#SCROLL 0.96
0,
#SCROLL 1
1,
#SCROLL 1.04
0,
#SCROLL 1.08
1,
#SCROLL 1.12
0,
#SCROLL 1.17
1,
#SCROLL 1.21
0,
#SCROLL 1.26
1,
#SCROLL 1.31
0,
#SCROLL 1.36
1,
#SCROLL 1.41
0,
#SCROLL 1.47
1,
#SCROLL 1.53
0,
#SCROLL 1.59
1,
#SCROLL 1.65
0,
#SCROLL 1.71
1,
#SCROLL 1.78
0,
#SCROLL 1.85
1,
#SCROLL 1.92
0,
#MEASURE 3/4
#SCROLL 2
1, //147
#SCROLL 1
300022221020,
300022121020,
300022111020,
101022112020, //151
#MEASURE 4/4
1011
#GOGOSTART
221011102030,
0011201122112120,
3011221122112030,
000000100100200200100100200010001000200010001000,
#GOGOEND
000000000000
#GOGOSTART
300000100100200000202020100000300000,
000000100100200000101010200000202020100000300000,
000111200111200222100300,
000000100100200000100100200010001000200010001000, //159
2211221122112211,
2111211121112111,
1212111212111212,
1112121112111211,
1212121212121212,
1122112222112211,
#GOGOEND
2000200022201020,
02020200, //167
#MEASURE 1/4
#BPMCHANGE 60
#SCROLL 6
#GOGOSTART
3,
#SCROLL 2
0,
0,
0,
0,
#GOGOEND
#BARLINEOFF
#MEASURE 4/4
#BPMCHANGE 240
#SCROLL 5
4,
#SCROLL 1
0, //174
#END

COURSE:Oni
LEVEL:10
BALLOON:2,2,3,3,4,4,5
SCOREINIT:410,1130
SCOREDIFF:98
#START
43,
43,
200000000000200020002000100200200200100200100000,
1022121010221210,
#MEASURE 1/4
#BPMCHANGE 60
#SCROLL 4
#GOGOSTART
3,
#SCROLL 8
0,
0,
0,
0,
#GOGOEND
#BARLINEOFF
#MEASURE 4/4
#BPMCHANGE 240
#SCROLL 2
4, //10
#BARLINEON
#SCROLL 1
1000200011102010,
0020102011200030,
0011202010201022,
11210203,
0011200011102010,
0020102011200030,
0011202010201022,
1010201111200010, //18
01201120,
1110201040400030,
0012202010201012,
22121203,
0011104010002000,
1111201011102030,
0022203000221030,
0021103000203000, //26
#SCROLL 0.75
1010201120001020,
0020102210102010,
0010002210102010,
01214040,
1010201120001020,
0020102210102010,
0022203000203000,
23023220,
#SCROLL 1
3000201000112000,
0040001120201000,
3000201000112000,
0040001120201222, //38
#MEASURE 3/4
100020100011,
100010200022,
100020100011,
100010211020,
111010201010,
111010202010,
111010201010,
212121212121, //46
110201,
110202,
110201,
120212,
110201,
110202,
110201,
120212, //54
111020100010,
211010112010,
111020100010,
211010112011,
211020102010,
221020102011,
103000400011,
111210404030, //62
302222111,
222122122,
102222111,
222112211,
102211221,
122122122,
121121121,
#MEASURE 2/4
121121, //70
#MEASURE 3/4
102222111,
222112112,
212212212,
212212212,
#MEASURE 4/4
1011201010002010,
0011201010102211,
2010201110102210,
0011201020102210,
3022203022203022,
2030222012201220,
1122201122201122,
#MEASURE 2/4
20112220, //82
#MEASURE 1/4
#BPMCHANGE 60
#SCROLL 4
#GOGOSTART
3,
#SCROLL 8
0,
0,
0,
0,
#GOGOEND
#BARLINEOFF
#MEASURE 4/4
#BPMCHANGE 240
#SCROLL 2
4, //88
#BARLINEON
#MEASURE 3/4
#SCROLL 1
222102,
112211,
222102,
101022201010,
222102,
112211,
#MEASURE 4/4
2010201021102010,
2010221020102000, //96
30211021,
20212120,
30211021,
10211120,
3000102010221010,
1210201120121020,
2210101022101010,
2210201022102010,
2210221022102210,
200200100100200010001000200010001000200010001000, //106
#MEASURE 3/4
708708,
708708,
708708,
#MEASURE 3/8
708, //110
#MEASURE 1/32
#SCROLL 0.5
0,
#SCROLL 0.52
0,
#SCROLL 0.54
0,
#SCROLL 0.56
0,
#SCROLL 0.58
0,
#SCROLL 0.61
0,
#SCROLL 0.63
0,
#SCROLL 0.65
0,
#SCROLL 0.68
0,
#SCROLL 0.71
0,
#SCROLL 0.73
0,
#SCROLL 0.76
0,
#SCROLL 0.79
0,
#SCROLL 0.82
0,
#SCROLL 0.86
0,
#SCROLL 0.89
0,
#SCROLL 0.93
0,
#SCROLL 0.96
0,
#SCROLL 1
0,
#SCROLL 1.04
0,
#SCROLL 1.08
0,
#SCROLL 1.12
0,
#SCROLL 1.17
0,
#SCROLL 1.21
0,
#SCROLL 1.26
0,
#SCROLL 1.31
0,
#SCROLL 1.36
0,
#SCROLL 1.41
0,
#SCROLL 1.47
0,
#SCROLL 1.53
0,
#SCROLL 1.59
0,
#SCROLL 1.65
0,
#SCROLL 1.71
0,
#SCROLL 1.78
0,
#SCROLL 1.85
0,
#SCROLL 1.92
0,
#MEASURE 3/4
#SCROLL 2
0, //147
#SCROLL 1
100022201020,
100022101020,
100021101020,
212122, //151
#MEASURE 4/4
0011
#GOGOSTART
202010102010,
0011201121102010,
0011201110222010,
000000100100200200200000100000001000100020002000,
#GOGOEND
0000
#GOGOSTART
200120211210,
0011202212211210,
0021121000200030,
000000100100200200100100100010001000100020002000, //159
2010221022112010,
2110211120112210,
2212102212102212,
1022121012201220,
1212121212121212,
1111222211221212,
#GOGOEND
0,
0, //167
#MEASURE 1/4
#BPMCHANGE 60
#SCROLL 4
#GOGOSTART
3,
#SCROLL 8
0,
0,
0,
0,
#GOGOEND
#BARLINEOFF
#MEASURE 4/4
#BPMCHANGE 240
#SCROLL 2
4,
#SCROLL 1
0, //174
#END

COURSE:Hard
LEVEL:7
BALLOON:6
SCOREINIT:520,2100
SCOREDIFF:138
#START
43,
43,
43,
43,
#MEASURE 1/4
#BPMCHANGE 60
#SCROLL 4
#GOGOSTART
3,
0,
0,
0,
0,
#GOGOEND
#BARLINEOFF
#MEASURE 4/4
#BPMCHANGE 240
#SCROLL 2
4, //10
#BARLINEON
#SCROLL 1
10201201,
02010203,
00221200,
11210203,
00201201,
02010203,
00221200,
11210201, //18
0212,
11104403,
00222200,
22220203,
00040020,
10201103,
02230223,
02230030, //26
#SCROLL 0.75
10212012,
02021021,
01021021,
01014040,
10212012,
02021021,
00030030,
03003000,
#SCROLL 1
30210020,
12002020,
30210020,
12002020, //38
#MEASURE 3/4
102100,
101200,
102100,
101200,
101212,
101212,
101212,
222222, //46
100201,
100202,
100201,
100202,
100201,
100202,
100201,
100202, //54
102101,
210120,
102101,
210120,
212121,
212121,
030303,
030303, //62
300200111,
111,
100200111,
122,
100200111,
122,
100100111,
#MEASURE 2/4
11, //70
#MEASURE 3/4
100200111,
122,
200200222,
222,
#MEASURE 4/4
10201021,
01201020,
21202121,
01202020,
30030030,
03001210,
30230230,
#MEASURE 2/4
2302, //82
#MEASURE 1/4
#BPMCHANGE 60
#SCROLL 4
#GOGOSTART
3,
0,
0,
0,
0,
#GOGOEND
#BARLINEOFF
#MEASURE 4/4
#BPMCHANGE 240
#SCROLL 2
4, //88
#BARLINEON
#MEASURE 3/4
#SCROLL 1
222100,
102210,
222100,
102210,
222100,
102210,
#MEASURE 4/4
20202120,
21202120, //96
30211020,
20212020,
30211020,
1212,
30121012,
10212120,
20112011,
20212120,
21212121,
21212020, //106
#MEASURE 3/4
33,
33,
33,
#MEASURE 3/8
3, //110
#MEASURE 1/32
#SCROLL 0.5
0,
#SCROLL 0.52
0,
#SCROLL 0.54
0,
#SCROLL 0.56
0,
#SCROLL 0.58
0,
#SCROLL 0.61
0,
#SCROLL 0.63
0,
#SCROLL 0.65
0,
#SCROLL 0.68
0,
#SCROLL 0.71
0,
#SCROLL 0.73
0,
#SCROLL 0.76
0,
#SCROLL 0.79
0,
#SCROLL 0.82
0,
#SCROLL 0.86
0,
#SCROLL 0.89
0,
#SCROLL 0.93
0,
#SCROLL 0.96
0,
#SCROLL 1
0,
#SCROLL 1.04
0,
#SCROLL 1.08
0,
#SCROLL 1.12
0,
#SCROLL 1.17
0,
#SCROLL 1.21
0,
#SCROLL 1.26
0,
#SCROLL 1.31
0,
#SCROLL 1.36
0,
#SCROLL 1.41
0,
#SCROLL 1.47
0,
#SCROLL 1.53
0,
#SCROLL 1.59
0,
#SCROLL 1.65
0,
#SCROLL 1.71
0,
#SCROLL 1.78
0,
#SCROLL 1.85
0,
#SCROLL 1.92
0,
#MEASURE 3/4
#SCROLL 2
0, //147
#SCROLL 1
102210,
102110,
101110,
202022, //151
#MEASURE 4/4
00
#GOGOSTART
221021,
01212021,
01211021,
01207000,
#GOGOEND
80
#GOGOSTART
202211,
00221111,
01210203,
0122, //159
20202121,
20202121,
5,
000000000000000000000000000000000000000008000000,
6,
000000000000000000000000000000000000000000000008,
#GOGOEND
0,
0, //167
#MEASURE 1/4
#BPMCHANGE 60
#SCROLL 4
#GOGOSTART
3,
0,
0,
0,
0,
#GOGOEND
#BARLINEOFF
#MEASURE 4/4
#BPMCHANGE 240
#SCROLL 2
4,
#SCROLL 1
0, //174
#END

COURSE:Normal
LEVEL:7
BALLOON:5,4
SCOREINIT:630,3280
SCOREDIFF:188
#START
43,
43,
43,
43,
#MEASURE 1/4
#BPMCHANGE 60
#SCROLL 4
#GOGOSTART
3,
0,
0,
0,
0,
#GOGOEND
#BARLINEOFF
#MEASURE 4/4
#BPMCHANGE 240
#SCROLL 2
4, //10
#BARLINEON
#SCROLL 1
10101001,
02010203,
0220,
20200103,
00101001,
02010203,
0220,
20200201, //18
01,
10004005,
000000000000000000000000000000000008000000000000,
00020203,
00040000,
10101003,
00030003,
00030030, //26
#SCROLL 0.75
10002001,
01011001,
01011001,
01004040,
10002001,
01011001,
00030030,
03003000,
#SCROLL 1.0
30010020,
02001010,
30010020,
02001010, //38
#MEASURE 3/4
12,
12,
12,
12,
100202,
100202,
7,
8, //46
12,
12,
12,
1,
12,
12,
12,
1, //54
102200,
110110,
102200,
110110,
111,
111,
030303,
030300, //62
111,
111,
222,
222,
111,
111,
121,
#MEASURE 2/4
21, //70
#MEASURE 3/4
111,
111,
212,
121,
#MEASURE 4/4
10001001,
0110,
10001001,
0110,
30030030,
03003000,
11011011,
#MEASURE 2/4
0110, //82
#MEASURE 1/4
#BPMCHANGE 60
#SCROLL 4
#GOGOSTART
3,
0,
0,
0,
0,
#GOGOEND
#BARLINEOFF
#MEASURE 4/4
#BPMCHANGE 240
#SCROLL 2
4, //88
#BARLINEON
#MEASURE 3/4
#SCROLL 1
2,
220,
2,
220,
2,
220,
#MEASURE 4/4
22,
2222, //96
3210,
2222,
3210,
2222,
3210,
2222,
2121,
2222,
2222,
2222, //106
#MEASURE 3/4
33,
33,
33,
#MEASURE 3/8
3, //110
#MEASURE 1/32
#SCROLL 0.5
0,
#SCROLL 0.52
0,
#SCROLL 0.54
0,
#SCROLL 0.56
0,
#SCROLL 0.58
0,
#SCROLL 0.61
0,
#SCROLL 0.63
0,
#SCROLL 0.65
0,
#SCROLL 0.68
0,
#SCROLL 0.71
0,
#SCROLL 0.73
0,
#SCROLL 0.76
0,
#SCROLL 0.79
0,
#SCROLL 0.82
0,
#SCROLL 0.86
0,
#SCROLL 0.89
0,
#SCROLL 0.93
0,
#SCROLL 0.96
0,
#SCROLL 1
0,
#SCROLL 1.04
0,
#SCROLL 1.08
0,
#SCROLL 1.12
0,
#SCROLL 1.17
0,
#SCROLL 1.21
0,
#SCROLL 1.26
0,
#SCROLL 1.31
0,
#SCROLL 1.36
0,
#SCROLL 1.41
0,
#SCROLL 1.47
0,
#SCROLL 1.53
0,
#SCROLL 1.59
0,
#SCROLL 1.65
0,
#SCROLL 1.71
0,
#SCROLL 1.78
0,
#SCROLL 1.85
0,
#SCROLL 1.92
0,
#MEASURE 3/4
#SCROLL 2
0, //147
#SCROLL 1
101,
101,
101,
202, //151
#MEASURE 4/4
00
#GOGOSTART
101001,
00101001,
00101001,
0170,
#GOGOEND
80
#GOGOSTART
202011,
00202011,
00220203,
0122, //159
2121,
2121,
5,
000000000000000000000000000000000000000008000000,
6,
000000000000000000000000000000000000000000000008,
#GOGOEND
0,
0, //167
#MEASURE 1/4
#BPMCHANGE 60
#SCROLL 4
#GOGOSTART
3,
0,
0,
0,
0,
#GOGOEND
#BARLINEOFF
#MEASURE 4/4
#BPMCHANGE 240
#SCROLL 2
4,
#SCROLL 1
0, //174
#END

COURSE:Easy
LEVEL:5
BALLOON:5,4,3,3
SCOREINIT:580,5640
SCOREDIFF:188 //RC score: 590/185
#START
43,
43,
43,
43,
#MEASURE 1/4
#BPMCHANGE 60
#SCROLL 4
#GOGOSTART
3,
0,
0,
0,
0,
#GOGOEND
#BARLINEOFF
#MEASURE 4/4
#BPMCHANGE 240
#SCROLL 2
4, //10
#BARLINEON
#SCROLL 1
10000001,
00010003,
0220,
20200003,
00000001,
00010003,
0220,
20200001, //18
01,
10004005,
000000000000000000000000000000000008000000000000,
00010103,
00070000,
00080003,
00030003,
00030000, //26
#SCROLL 0.75
10000001,
00001001,
00001001,
00004000,
10000001,
00001001,
00060000,
000000000000000000000008000000000000000000000000,
#SCROLL 1.0
3002,
01,
3002,
01, //38
#MEASURE 3/4
1,
1,
1,
1,
12,
12,
7,
8, //46
1,
1,
1,
1,
1,
1,
1,
1, //54
1,
2,
1,
2,
110,
110,
060000,
000000000000000008000000000000000000, //62
101,
101,
102,
201,
101,
102,
202,
#MEASURE 2/4
21, //70
#MEASURE 3/4
101,
102,
202,
201,
#MEASURE 4/4
10000001,
01,
10000001,
01,
5,
000000000000000000000008000000000000000000000000,
600000000000000000000000000000000000000000000008,
#MEASURE 2/4
0, //82
#MEASURE 1/4
#BPMCHANGE 60
#SCROLL 4
#GOGOSTART
3,
0,
0,
0,
0,
#GOGOEND
#BARLINEOFF
#MEASURE 4/4
#BPMCHANGE 240
#SCROLL 2
4, //88
#BARLINEON
#MEASURE 3/4
#SCROLL 1
2,
020,
2,
020,
2,
020,
#MEASURE 4/4
2,
22, //96
31,
22,
31,
22,
31,
22,
2220,
2220,
2222,
2220, //106
#MEASURE 3/4
33,
33,
33,
#MEASURE 3/8
3,
#MEASURE 1/32
#SCROLL 0.5
0,
#SCROLL 0.52
0,
#SCROLL 0.54
0,
#SCROLL 0.56
0,
#SCROLL 0.58
0,
#SCROLL 0.61
0,
#SCROLL 0.63
0,
#SCROLL 0.65
0,
#SCROLL 0.68
0,
#SCROLL 0.71
0,
#SCROLL 0.73
0,
#SCROLL 0.76
0,
#SCROLL 0.79
0,
#SCROLL 0.82
0,
#SCROLL 0.86
0,
#SCROLL 0.89
0,
#SCROLL 0.93
0,
#SCROLL 0.96
0,
#SCROLL 1
0,
#SCROLL 1.04
0,
#SCROLL 1.08
0,
#SCROLL 1.12
0,
#SCROLL 1.17
0,
#SCROLL 1.21
0,
#SCROLL 1.26
0,
#SCROLL 1.31
0,
#SCROLL 1.36
0,
#SCROLL 1.41
0,
#SCROLL 1.47
0,
#SCROLL 1.53
0,
#SCROLL 1.59
0,
#SCROLL 1.65
0,
#SCROLL 1.71
0,
#SCROLL 1.78
0,
#SCROLL 1.85
0,
#SCROLL 1.92
0,
#MEASURE 3/4
#SCROLL 2
0, //147
#SCROLL 1
1,
1,
1,
2, //151
#MEASURE 4/4
00
#GOGOSTART
101001,
00001001,
00001001,
0700,
#GOGOEND
80
#GOGOSTART
202001,
00202001,
000000000000000000700000000000000000000000000008,
02, //159
22,
2220,
5,
000000000000000000000000000000000000000008000000,
6,
000000000000000000000000000000000000000000000008,
#GOGOEND
0,
0, //167
#MEASURE 1/4
#BPMCHANGE 60
#SCROLL 4
#GOGOSTART
3,
0,
0,
0,
0,
#GOGOEND
#BARLINEOFF
#MEASURE 4/4
#BPMCHANGE 240
#SCROLL 2
4,
#SCROLL 1
0, //174
#END
