//TJADB Project
TITLE:Unlimited Games
TITLEJA:アンリミテッドゲームズ
SUBTITLE:--Ponchi♪ feat. haxchi
SUBTITLEJA:Ponchi♪ feat. はぁち
BPM:310
WAVE:Unlimited Games.ogg
OFFSET:-0.88
DEMOSTART:40.44 //shinuchi:
3900/2900/1970/1010/740

COURSE:Edit
LEVEL:10
BALLOON:20,4,4
SCOREINIT:260,830
SCOREDIFF:60
#START
#GOGOSTART
111222112211,
222111221122,
#GOGOEND
1,
2,
10010010,
2020,
1000100010002111,
20120120,
000000000000000000000002,
2020,
#GOGOSTART
3010201011201022,
2011202010202010,
1010201011201022,
2011202010102020,
1010201011201022,
2011202010202010,
1010201011201022,
2021202010202020,
#GOGOEND
7,
,
8,
,
1111,
1111,
,
44444444,
111222111222,
110222110111,
222222111111,
110222110222,
111111222222,
110111220222,
111220111220,
100010001000200020002000100100100000000000600000,
000008000000300000000000300000300000000000600000,
000008000000300000000000300000300000000000600000,
000008000000300000000000300000300000000000000000,
0000000022222060,
000008000000300000000000300000300000000000600000,
000008000000300000000000300000300000000000600000,
000008000000300000000000300000300000000000400000,
0000000000000011,
1111102030302011,
1111102030302011,
1111102030302030,
0000000022222222,
11111111,
21111111,
1110102010102210,
1010221022202222,
10030030,
,
#GOGOSTART
3000222010112020,
1010222010112020,
1010222010112011,
1010222011112000,
1010222010112020,
1010222010112020,
1010222010112010,
01400400,
1010202011112010,
2010201022112020,
1010201011112010,
2010201022112020,
1111111040000000,
1111111040003000,
000211211211,
221221222222,
#MEASURE 3/4
#GOGOEND
#BPMCHANGE 155
#SCROLL 2
00
#GOGOSTART
#BPMCHANGE 310
#SCROLL 1
3022,
#MEASURE 4/4
1010222010112020,
1010222010112011,
1010222011112000,
1010222010112020,
1010222010112020,
1010222010112010,
01400400,
1010202011112010,
2010201022112220,
00300300,
600000000000000000000008000000000000000000000000,
#GOGOEND
20220220,
040
#GOGOSTART
3,
000111111111,
2030,
#GOGOEND
30002222,
#MEASURE 7/8
3003004,
0040040,
#MEASURE 4/4
3040,
30002222,
#MEASURE 7/8
3003004,
0040040,
#MEASURE 4/4
000000102020200120202000,
3000000020202220,
#MEASURE 7/8
3023004,
0140140,
#MEASURE 4/4
300122222222,
30002222,
30030040,
#BPMCHANGE 155
#SCROLL 2
00000005,
#MEASURE 3/4
008000100000
#GOGOSTART
#BPMCHANGE 310
#SCROLL 1
400000000000200000100100,
#MEASURE 4/4
1010202011102011,
1010202011102011,
1110201020102010,
1122112210102020,
1111101022222020,
300000000000200000300000000000200000600000000008,
000000202020202020200200,
#GOGOEND
100022222222,
100022202020,
111122221111,
222212,
3,
00400400,
300000202020200200101010,
10400400,
30111111,
1110111011101110,
3020,
2020,
#MEASURE 8/4
00,
#MEASURE 4/4
#BPMCHANGE 155
1000200002002000,
1000200002002022,
1000200002002000,
#MEASURE 6/4
100000222222
#BPMCHANGE 310
000000400000000400000000,
#MEASURE 4/4
3000000020001011,
10212010,
3000000020001110,
1000101120000000,
700000000000000008000000400000000000000000000000,
700000000000000008000000400000000000300000000000,
0000111022201110,
2222111022222222,
#MEASURE 3/4
#BPMCHANGE 155
#SCROLL 2
00
#GOGOSTART
#BPMCHANGE 310
#SCROLL 1
3022,
#MEASURE 4/4
1010212010112020,
1010212010112011,
1010212021112020,
1010212010112020,
1010212010112000,
00300300,
4000212120212020,
1010202011112010,
2010201021112220,
00300300,
600000000000000000000008000000000000100100100100,
#GOGOEND
2,
000400111
#GOGOSTART
300,
000222111222,
112112112112,
#GOGOEND
30030040,
040000
#GOGOSTART
30,
000000000000100010001000100010001000100100100100,
#MEASURE 1/4
#GOGOEND
#BPMCHANGE 77.5
#SCROLL 4
23,
#MEASURE 4/4
#GOGOSTART
#BPMCHANGE 310
#SCROLL 1
3010201011201022,
2011202010222010,
1010201011201022,
2011202011112020,
1010201011201022,
2011202010222010,
1010201011201022,
2021202010222222,
2000401011201021,
1111202010222011,
1111201011201021,
100100100100200000200000100010001000200020002000,
1010201011201021,
1111202010222011,
1111201011201021,
1121202012101210,
#GOGOEND
1000000011111111,
200200200200200200200200100020001000200010002000,
#GOGOSTART
33033044,
0040400012121030,
#GOGOEND
0,
,
#END

COURSE:Oni
LEVEL:10
BALLOON:9,8,9,8,10,36
SCOREINIT:390,1190
SCOREDIFF:85
#START
#GOGOSTART
111111111111,
111111111111,
#GOGOEND
1,
,
,
,
1111,
10010010,
222222222222,
2020,
#GOGOSTART
1110201010201020,
02112212,
1110201010201020,
02212212,
1110201010201020,
02112212,
1110201010201020,
02212122,
#GOGOEND
1,
,
,
,
1112,
1121,
2020,
22222222,
10201122,
1000200011101020,
00201012,
2020100011101020,
10201012,
2020100011102000,
111111222222,
101010101010200000000300,
00101103,
00101103,
00101102,
00202023,
00101103,
00101103,
00101102,
00202023,
0000100011100030,
0000100011100030,
0000100011100020,
0000200022202010,
0012,
10101120,
1000001100002000,
0000100022202000,
700000000000000000000000000000000000000008000000,
,
#GOGOSTART
30001012,
1110102000102020,
11201122,
0010200011102000,
12121022,
0010200011101020,
11201112,
00300300,
1110102010102010,
01221020,
1110102010102010,
01221020,
600000000000000008000000400000000000000000000000,
600000000000000008000000400000000000100000000000,
00202121,
200111111111,
#MEASURE 3/4
#GOGOEND
#BPMCHANGE 155
#SCROLL 2
2
#GOGOSTART
#BPMCHANGE 310
#SCROLL 1
30,
#MEASURE 4/4
1110102000102020,
11201122,
0010200011102000,
12121022,
0010200011101020,
11201112,
00300300,
1110102010102010,
0010202011101000,
00300300,
700000000000000000000000000000000008000000000000,
#GOGOEND
20220220,
023
#GOGOSTART
3,
0332,
3344,
#GOGOEND
30002222,
#MEASURE 7/8
3003003,
0030030,
#MEASURE 4/4
3040,
30002222,
#MEASURE 7/8
3003003,
0030030,
#MEASURE 4/4
000000202020200202020200,
40001222,
#MEASURE 7/8
3023004,
0140140,
#MEASURE 4/4
300222222222,
30002222,
30030030,
#BPMCHANGE 155
#SCROLL 2
00000002,
#MEASURE 3/4
02
#GOGOSTART
#BPMCHANGE 310
#SCROLL 1
3022,
#MEASURE 4/4
0010200011102020,
00102012,
0010200011102000,
101020101020100100200200,
1110100022202000,
30230270,
0008,
#GOGOEND
202211,
202010,
222022201110,
222212,
30110110,
0403,
30110110,
0401,
12101210,
12121212,
1020,
2020,
#MEASURE 8/4
00,
#MEASURE 4/4
#BPMCHANGE 155
1000200010010020,
0010101200200020,
1111202100201022,
#MEASURE 6/4
10102021
#BPMCHANGE 310
0000300000300000,
#MEASURE 4/4
11121121,
01221020,
11121121,
01221020,
600000000000000008000000400000000000000000000000,
600000000000000008000000400000000000300000000000,
0333,
300222222222,
#MEASURE 3/4
#BPMCHANGE 155
#SCROLL 2
1
#GOGOSTART
#BPMCHANGE 310
#SCROLL 1
30,
#MEASURE 4/4
2220002220001000,
0010200011102020,
0010200011102000,
1020102011102020,
0010200011102000,
00300300,
600000000000000000000008000000000000200000200000,
1110102010102010,
0010202011101000,
00300300,
700000000000000000000000000000000008000000000000,
#GOGOEND
0,
043
#GOGOSTART
3,
0332,
3344,
#GOGOEND
700000000000000000000000000000000000000000000008,
003
#GOGOSTART
3,
0433,
#MEASURE 1/4
#GOGOEND
#BPMCHANGE 77.5
#SCROLL 4
2240,
#MEASURE 4/4
#GOGOSTART
#BPMCHANGE 310
#SCROLL 1
6,
,
000000000000000000000000000000000000000000000008,
0030,
7,
,
,
000000000008000000000000000000000000000000000000,
20411212,
02112212,
1110201010201020,
02212212,
1110201010201020,
0020101022201020,
1110201010201020,
0020201022102020,
#GOGOEND
100000111111,
111111211111,
#GOGOSTART
33033044,
0040400011103030,
#GOGOEND
0,
,
#END

COURSE:Hard
LEVEL:7
BALLOON:12,12,12,7,46
SCOREINIT:540,2570
SCOREDIFF:128
#START
#GOGOSTART
6,
000000000000000000000000000000000000000000000008,
#GOGOEND
0,
,
,
,
1111,
10010010,
2,
2020,
#GOGOSTART
11011011,
0120,
11011011,
0220,
11011011,
0120,
11011011,
0220,
#GOGOEND
1,
,
,
,
1001,
0111,
2020,
2020,
1122,
10102011,
0021,
0122,
1021,
0122,
1020,
10002007,
,
0080,
00000002,
00202027,
,
0080,
00000002,
00202027,
,
0080,
00000002,
00202022,
0001,
1122,
30030030,
0340,
600000000000000000000000000000000000000008000000,
,
#GOGOSTART
1010,
10010020,
00101011,
0202,
10101011,
0212,
10101011,
0001,
20202022,
0221,
20202022,
0222,
600000000000000008000000400000000000000000000000,
600000000000000008000000400000000000100000000000,
0111,
1222,
#MEASURE 3/4
#GOGOEND
#BPMCHANGE 155
#SCROLL 2
1
#GOGOSTART
#BPMCHANGE 310
#SCROLL 1
30,
#MEASURE 4/4
10010020,
00101011,
0202,
10101011,
0212,
10101011,
0001,
20202022,
0222,
00300300,
600000000000000000000000000008000000000000000000,
#GOGOEND
0,
003
#GOGOSTART
3,
0332,
3333,
#GOGOEND
3,
#MEASURE 7/8
3003003,
0030030,
#MEASURE 4/4
3040,
3,
#MEASURE 7/8
3003003,
0030030,
#MEASURE 4/4
0400,
4,
#MEASURE 7/8
3003003,
0030030,
#MEASURE 4/4
3,
3,
30030030,
#BPMCHANGE 155
#SCROLL 2
0000000000000002,
#MEASURE 3/4
00
#GOGOSTART
#BPMCHANGE 310
#SCROLL 1
1011,
#MEASURE 4/4
00201011,
00001002,
0222,
11101110,
1122,
5,
000000000000000000000008000000000000000000000000,
#GOGOEND
200020,
202020,
200020,
202000,
3,
0403,
3,
0401,
1212,
1212,
1020,
2020,
#MEASURE 8/4
00,
#MEASURE 4/4
#BPMCHANGE 155
1000100010010010,
0010101100000000,
2020202200202000,
#MEASURE 6/4
20202022
#BPMCHANGE 310
0000300000300000,
#MEASURE 4/4
10101011,
0212,
10101011,
0212,
600000000000000008000000400000000000000000000000,
600000000000000008000000400000000000100000000000,
0111,
1222,
#MEASURE 3/4
#BPMCHANGE 155
#SCROLL 2
2
#GOGOSTART
#BPMCHANGE 310
#SCROLL 1
30,
#MEASURE 4/4
30030020,
00101011,
0212,
10101011,
0212,
00300300,
3001,
20202022,
0222,
00300300,
600000000000000000000000000008000000000000000000,
#GOGOEND
0,
003
#GOGOSTART
3,
0332,
3333,
#GOGOEND
700000000000000000000000000000000000000000000008,
003
#GOGOSTART
3,
0333,
#MEASURE 1/4
#GOGOEND
#BPMCHANGE 77.5
#SCROLL 4
44,
#MEASURE 4/4
#GOGOSTART
#BPMCHANGE 310
#SCROLL 1
6,
,
000000000000000000000000000000000000000000000008,
0030,
6,
,
,
000000000008000000000000000000000000000000000000,
9,
,
,
,
000000000000000000000009000000000000000000000000,
000000000000000000000000000000000000000000000008,
,
,
#GOGOEND
1,
,
#GOGOSTART
33033033,
03303033,
#GOGOEND
0,
,
#END

COURSE:Normal
LEVEL:7
BALLOON:7,7,7,5,8,8,8,5,4,27
SCOREINIT:660,3880
SCOREDIFF:158
#START
#GOGOSTART
6,
000000000000000000000000000000000000000000000008,
#GOGOEND
0,
,
,
,
1010,
10010010,
2,
2020,
#GOGOSTART
10001011,
0010,
10001011,
0020,
10001011,
0010,
10001011,
0020,
#GOGOEND
1,
,
,
,
1001,
0110,
2020,
2020,
1011,
10001011,
0001,
0110,
1001,
0110,
2020,
20002007,
,
0080,
00000002,
00202007,
,
0080,
00000002,
00202007,
,
0080,
00000002,
00202002,
0001,
1010,
30030030,
0330,
600000000000000000000000000000000000000008000000,
,
#GOGOSTART
1010,
10010010,
00101011,
0202,
10001011,
0110,
10001011,
,
20202002,
0020,
20202002,
0020,
1030,
1037,
,
8,
#MEASURE 3/4
#GOGOEND
#BPMCHANGE 155
#SCROLL 2
1
#GOGOSTART
#BPMCHANGE 310
#SCROLL 1
30,
#MEASURE 4/4
10010010,
00101011,
0202,
10001011,
0110,
10001011,
,
20202002,
0020,
00300300,
600000000000000000000000000008000000000000000000,
#GOGOEND
0,
003
#GOGOSTART
3,
0330,
3333,
#GOGOEND
3,
#MEASURE 7/8
7000000,
,
#MEASURE 4/4
8,
3,
#MEASURE 7/8
7000000,
,
#MEASURE 4/4
8,
4,
#MEASURE 7/8
7000000,
,
#MEASURE 4/4
8,
3,
500000000000000000000000000000000000000008000000,
#BPMCHANGE 155
#SCROLL 2
0000000000000002,
#MEASURE 3/4
00
#GOGOSTART
#BPMCHANGE 310
#SCROLL 1
1011,
#MEASURE 4/4
00001011,
00002002,
0220,
1110,
1110,
5,
000000000000000000000008000000000000000000000000,
#GOGOEND
2,
202000,
2,
202000,
3,
0400,
3,
0400,
1010,
1111,
1020,
2020,
#MEASURE 8/4
00,
#MEASURE 4/4
#BPMCHANGE 155
10001001,
,
2000000200000000,
#MEASURE 6/4
20
#BPMCHANGE 310
0300,
#MEASURE 4/4
10101001,
0020,
10101001,
0020,
1030,
1037,
,
8,
#MEASURE 3/4
#BPMCHANGE 155
#SCROLL 2
0
#GOGOSTART
#BPMCHANGE 310
#SCROLL 1
30,
#MEASURE 4/4
3001,
00101011,
0220,
10001011,
0110,
00300300,
3,
20202002,
0020,
00300300,
600000000000000000000000000008000000000000000000,
#GOGOEND
0,
003
#GOGOSTART
3,
0330,
3333,
#GOGOEND
700000000000000000000000000000000000000000000008,
003
#GOGOSTART
3,
0330,
#MEASURE 1/4
#GOGOEND
#BPMCHANGE 77.5
#SCROLL 4
44,
#MEASURE 4/4
#GOGOSTART
#BPMCHANGE 310
#SCROLL 1
6,
,
000000000000000000000000000000000000000000000008,
0030,
6,
,
,
000000000008000000000000000000000000000000000000,
9,
,
,
,
000000000000000000000009000000000000000000000000,
000000000000000000000000000000000000000000000008,
,
,
#GOGOEND
1,
,
#GOGOSTART
30030030,
03003033,
#GOGOEND
0,
,
#END

COURSE:Easy
LEVEL:5
BALLOON:6,6,6,4,6,6,6,4,3,23
SCOREINIT:480,5520
SCOREDIFF:103
#START
#GOGOSTART
6,
000000000000000000000000000000000000000000000008,
#GOGOEND
0,
,
,
,
1010,
1,
2,
,
#GOGOSTART
10001001,
,
10001001,
,
10001001,
,
10001001,
,
#GOGOEND
1,
,
,
,
1001,
0010,
2020,
2,
1010,
10000001,
0001,
0010,
1001,
0010,
2020,
20000007,
,
0080,
00000002,
00000007,
,
0080,
00000002,
00000007,
,
0080,
00000002,
00002002,
,
1010,
30030030,
0030,
600000000000000000000000000000000000000008000000,
,
#GOGOSTART
1010,
1001,
00001001,
,
10001001,
0010,
10001001,
,
20002002,
,
20002002,
,
1030,
1037,
,
8,
#MEASURE 3/4
#GOGOEND
#BPMCHANGE 155
#SCROLL 2
1
#GOGOSTART
#BPMCHANGE 310
#SCROLL 1
30,
#MEASURE 4/4
1001,
00001001,
,
10001001,
0010,
10001001,
,
20002002,
0020,
00300300,
600000000000000000000000000008000000000000000000,
#GOGOEND
0,
003
#GOGOSTART
3,
0330,
3330,
#GOGOEND
3,
#MEASURE 7/8
7000000,
,
#MEASURE 4/4
8,
3,
#MEASURE 7/8
7000000,
,
#MEASURE 4/4
8,
4,
#MEASURE 7/8
7000000,
,
#MEASURE 4/4
8,
3,
500000000000000000000000000000000000000008000000,
#BPMCHANGE 155
#SCROLL 2
0000000000000002,
#MEASURE 3/4
00
#GOGOSTART
#BPMCHANGE 310
#SCROLL 1
1001,
#MEASURE 4/4
00001001,
00002002,
,
1010,
1010,
5,
000000000000000000000008000000000000000000000000,
#GOGOEND
2,
2,
2,
2,
3,
0400,
3,
0400,
1010,
1010,
1,
2020,
#MEASURE 8/4
00,
#MEASURE 4/4
#BPMCHANGE 155
10000001,
,
2,
#MEASURE 6/4
20
#BPMCHANGE 310
0300,
#MEASURE 4/4
10001001,
,
10001001,
,
1030,
1037,
,
8,
#MEASURE 3/4
#BPMCHANGE 155
#SCROLL 2
0
#GOGOSTART
#BPMCHANGE 310
#SCROLL 1
30,
#MEASURE 4/4
3001,
00001001,
,
10001001,
0010,
00300300,
3,
20002002,
0020,
00300300,
600000000000000000000000000008000000000000000000,
#GOGOEND
0,
003
#GOGOSTART
3,
0330,
3330,
#GOGOEND
700000000000000000000000000000000000000000000008,
003
#GOGOSTART
3,
0330,
#MEASURE 1/4
#GOGOEND
#BPMCHANGE 77.5
#SCROLL 4
44,
#MEASURE 4/4
#GOGOSTART
#BPMCHANGE 310
#SCROLL 1
6,
,
000000000000000000000000000000000000000000000008,
0030,
6,
,
,
000000000008000000000000000000000000000000000000,
9,
,
,
,
000000000000000000000009000000000000000000000000,
000000000000000000000000000000000000000000000008,
,
,
#GOGOEND
1,
,
#GOGOSTART
30030030,
03003030,
#GOGOEND
0,
,
#END
