//TJADB Project
TITLE:Shinsei to Nue
TITLEJA:晨星ト鵺
SUBTITLE:--Silentroom
SUBTITLEJA:Silentroom
BPM:220
WAVE:Shinsei to Nue.ogg
OFFSET:-0.804
DEMOSTART:79.074

COURSE:Oni
LEVEL:10
BALLOON:7,4,7,8,7
SCOREINIT:1100
SCOREDIFF:0
#START
10110120,
100000100100000100200222,
10221221,
100000200000000000200200100100100100100000101010,
10110120,
10110120,
10221221,
1001002211111110,
#GOGOSTART
1000102010221020,
100000200000100100200000100000200200100000202020,
1000202010221011,
1010203000222222,
#GOGOEND
10210121,
333333,
0022221022221020,
1001002220300000,
10002001,
1000100020222010,
12102011,
2010001020222020,
0011101020100000,
2010001020101011,
1010001020111010,
100010001000700000000800,
100000000000200000010000000000000000200000000000,
100000010000200000010000000000000000200000000000,
100000000000200000010000000000000000200000000000,
100000010000200000010000000000000000200000000000,
1001201021002220,
1001201021002211,
1001201021002022,
2211111022111110,
2000102100102000,
1020100120102100,
2000102100102100,
1020100100700080,
0000200100200100,
2000102100102100,
2000102100102111,
100210001010700000000800,
1000101020001021,
0110121020001001,
0011100020001121,
0112222070000080,
1011202012221011,
1000201121102111,
2000122212221122,
100100100100002020202020,
1,
111010101010300000101010,
3,
1111111100000000,
2,
2,
2000000000000022,
1001001010100000,
#GOGOSTART
3022203000203022,
2030002030222060,
,
000000000000000000000000000000000008000000000000,
3022203000203022,
2030002030222060,
000000000000000000000000000000000008000000000000,
1001
#GOGOEND
002211111110,
1012012011221020,
1012012011221120,
1102102012211221,
111111,
1022201000201222,
1011211010010020,
1011010110102000,
3030004000222000,
#GOGOSTART
1022102012201022,
1020102210201220,
1022102012201022,
1020122012201220,
1022102012201022,
1020102210201220,
1022102012201022,
1021021000302222,
10112102,
100000200000100000100000200000100100100000202020,
1000200010221010,
1010203000222222,
1011202011202010,
1011202011202210,
1011202011201120,
1010103000202222,
#GOGOEND
22,
22,
200200202020,
1022111110221111,
100000200000111010101010,
111411,
101010221111,
10002222100020
#GOGOSTART
10,
0010202010012010,
0010201210012010,
0010121012121210,
1001004000221111,
#GOGOEND
01221221,
300000000300000000200200100010001000100010001000,
1000200010112010,
11211221,
1000200010112010,
1010202211111010,
1000200010112010,
11211221,
1000200010112010,
2111211170000080,
1000121121121121,
1000112112112112,
1000122122122122,
1221221200000000,
100000005000000000000000000000000000000008000000,
100000006000000000000000000000000000000008000000,
100000002000200200100100100100100100200200100100,
1,
#END

COURSE:Hard
LEVEL:8
BALLOON:13,4,4,4,4,7,7,12,9
SCOREINIT:1900
SCOREDIFF:0
#START
10110220,
10110220,
10220220,
1010002220101000,
10110220,
10110220,
10220220,
1001002220101000,
#GOGOSTART
10121020,
12121022,
10221222,
11130222,
#GOGOEND
10210120,
333333,
07000000,
00000800,
10002001,
1122,
1121,
21012020,
01102010,
21002010,
10012010,
100010001000700000000800,
10210020,
10210020,
10210020,
11210020,
1000201001002020,
1000201001002010,
1000201001002050,
000000000000000000000000000000000000000008000000,
20120120,
12102120,
20120120,
1020100100000000,
0000200100200100,
2000100100100100,
2000100100100100,
10007008,
1000100020001001,
0010100020001001,
0010100020001001,
01207008,
11221212,
10212121,
20121210,
100100100100001010101010,
1,
111111300111,
3,
500000000000000000000008000000000000000000000000,
2,
2,
2,
1001001010100000,
#GOGOSTART
30230030,
23003026,
,
000000000000000000000000000000000008000000000000,
30230030,
23003026,
000000000000000000000000000000000008000000000000,
1000
#GOGOEND
002220101000,
1001002010102000,
1001002010102020,
1002002010201020,
111111,
10010210,
1000100010010020,
1012,
33040020,
#GOGOSTART
12101212,
10121012,
12101212,
1000102010202220,
12101212,
10121012,
12101212,
1001001000300000,
10112002,
10102110,
10200012,
1010103000222020,
10221220,
10221220,
11221212,
1010103000202220,
#GOGOEND
22,
22,
2220,
100000500000000000000000000000000000000008000000,
100200111111,
14,
111200,
10002220100020
#GOGOSTART
50,
,
000000000000000000000000000000000000000008000000,
0010111011101010,
1001004000222020,
#GOGOEND
01221220,
300000000300000000200200200000005000000000000008,
00201121,
10211220,
10201121,
10221110,
10201121,
10211220,
10201121,
21217008,
10700008,
10700008,
1700,
08,
100000005000000000000000000000000000000008000000,
100000006000000000000000000000000000000008000000,
100000009000000000000000000000000000000000000008,
#END

COURSE:Normal
LEVEL:7
BALLOON:10,6,5,5,9,7
SCOREINIT:2840
SCOREDIFF:0
#START
10010020,
10010020,
10010020,
11022010,
10010020,
10010020,
10010020,
10022010,
#GOGOSTART
1212,
11102010,
1202,
11130220,
#GOGOEND
10010020,
600000000000000000000000000000000000000008000000,
07000000,
00000800,
12,
1120,
1121,
20022020,
01102010,
2021,
10022020,
111000,
10010020,
10010020,
10010020,
11010020,
1000001001002000,
1000001001002000,
1000001001002050,
000000000000000000000000000000000000000008000000,
20020020,
02002020,
20020020,
02000020,
00200200,
20020020,
20020020,
02000000,
1121,
0121,
0121,
0200,
10201110,
10201110,
10111110,
11110000,
1,
1130,
3,
500000000000000000000008000000000000000000000000,
2,
2,
2,
500000000000000000000000000008000000000000000000,
#GOGOSTART
30030030,
03003006,
,
000000000000000000000000000000000008000000000000,
30030030,
03003006,
000000000000000000000000000000000008000000000000,
10
#GOGOEND
022010,
1001002000102000,
1001002000102000,
1002002000102000,
500000000000000000000000000000000000000008000000,
10010010,
1000000010010010,
1012,
33040020,
#GOGOSTART
10101210,
10101012,
10101210,
10121210,
10101210,
10101012,
10101210,
70000800,
10102002,
1121,
10200012,
11130220,
10201220,
10201220,
10201110,
11130220,
#GOGOEND
22,
22,
2220,
000000500000000000000000000000000000000008000000,
1211,
14,
1,
1020102
#GOGOSTART
5,
,
000000000000000000000000000000000000000008000000,
01101101,
10040220,
#GOGOEND
01101110,
300000000300000000500000000000000000000000000008,
00200120,
10200120,
10200120,
10201110,
10200120,
10200120,
10200120,
1100,
10700008,
10700008,
1700,
08,
100000005000000000000000000000000000000008000000,
100000006000000000000000000000000000000008000000,
100000009000000000000000000000000000000000000008,
#END

COURSE:Easy
LEVEL:4
BALLOON:7,4,3,3,7,5
SCOREINIT:4940
SCOREDIFF:0
#START
1,
1,
1,
10010010,
1,
1,
1,
500000000000000000000000000008000000000000000000,
#GOGOSTART
11,
12,
1101,
500000000000000008000000000000000000000000000000,
#GOGOEND
10010000,
600000000000000000000000000000000000000008000000,
07000000,
00000800,
12,
1,
12,
1,
0220,
1,
12,
1,
10010000,
10010000,
10010000,
10010000,
10010010,
10010010,
10010050,
000000000000000000000000000008000000000000000000,
20020020,
02002000,
20020020,
02000000,
00200200,
20020020,
20020020,
02000000,
1021,
0120,
0120,
0200,
11,
1110,
1111,
500000000000000008000000000000000000000000000000,
1,
13,
3,
500000000000000000000008000000000000000000000000,
2,
2,
2,
500000000000000000000000000008000000000000000000,
#GOGOSTART
30030030,
03003006,
,
000000000000000000000000000000000008000000000000,
30030030,
03003006,
000000000000000000000000000000000008000000000000,
1
#GOGOEND
000,
10010010,
10010010,
10010010,
500000000000000000000000000008000000000000000000,
10010000,
11,
11,
3,
#GOGOSTART
1110,
1110,
1111,
1110,
1110,
1110,
1111,
70000800,
11,
1110,
1101,
500000000000000008000000000000000000000000000000,
1110,
1110,
1111,
500000000000000008000000000000000000000000000000,
#GOGOEND
2,
2,
22,
000000500000000000000000000008000000000000000000,
11,
14,
1,
1000100
#GOGOSTART
5,
,
000000000000000000000000000000000000000008000000,
01001000,
10040000,
#GOGOEND
01001010,
300000000000000000500000000000000000000000000008,
0202,
1202,
1202,
1201,
1202,
1202,
1202,
1100,
10700008,
10700008,
1700,
08,
500000000000000000000000000000000000000008000000,
600000000000000000000000000000000000000008000000,
000000009000000000000000000000000000000000000008,
#END
