//TJADB Project
TITLE:Baby Shark -Johnny Only Version-
TITLEJA:Baby Shark(ベイビー・シャーク)
SUBTITLE:--Johnny Only
SUBTITLEJA:
BPM:116
WAVE:Baby Shark -Johnny Only Version-.ogg
OFFSET:-5.101
DEMOSTART:12.331 //shinuchi:
13870/8890/4620/2870

COURSE:Oni
LEVEL:4
BALLOON:17,6,19
SCOREINIT:820,3100
SCOREDIFF:225
#START
1010100101101010,
600000000000000000000000000000000000000008000000,
1000100101101010,
3022,
1010100022022020,
1010100022022020,
1010100022022020,
3011, //8
1010100011011010,
1010100011011010,
1010100011011010,
4012,
1020100011011010,
1020100011011010,
1020100011011010,
3012, //16
1020100022022020,
1020100022022020,
1020100022022020,
4012,
500000000000000000000000000000000000000008000000,
500000000000000000000000000000000000000008000000,
700000000000000000000000000000000000000000080000,
3022002220002000, //24
1010200011022010,
1010200011022010,
1010200011022010,
3012,
1010100022022020,
1010100022022020,
1010100022022020,
#BPMCHANGE 139
3012, //32
#GOGOSTART
1010100011011010,
1010100011011010,
1010100011011010,
3022,
1010100022022020,
1010100022022020,
1010100022022020,
#BPMCHANGE 111
700000000000000008000000100000000000100000000000, //40
#GOGOEND
1010100011011011,
1010100011011011,
1010100011011011,
500000000008000000000000100000100000200000200000,
12211215,
000000000008000000000000200000000000200000000000,
12211211,
44443030, //48
1010100011022011,
1010100011022011,
11101003,
37,
08,
0, //54
#END

COURSE:Hard
LEVEL:3
BALLOON:14,5,14
SCOREINIT:1000,5270
SCOREDIFF:340
#START
1111,
600000000000000000000000000000000000000008000000,
10101110,
3022,
1120,
1120,
1120,
3011, //8
1120,
1120,
1120,
4011,
11101010,
11101010,
11101010,
3022, //16
11102020,
11102020,
11102020,
4022, //20
500000000000000000000000000000000000000008000000,
500000000000000000000000000000000000000008000000,
9009,
8, //24
11101010,
11101010,
11101010,
3011,
1212,
3232,
3232,
#BPMCHANGE 139
3022, //32
#GOGOSTART
1122,
1122,
1122,
3022,
1212,
1212,
1212,
#BPMCHANGE 111
700000000000000008000000100000000000100000000000, //40
#GOGOEND
12101010,
12101010,
12101010,
3022,
10111015,
000000000008000000000000200000000000200000000000,
10222020,
44443030,
12102012,
12102012,
12101003,
39,
0980,
0, //54
#END

COURSE:Normal
LEVEL:1
BALLOON:10,6,10
SCOREINIT:1200,10800
SCOREDIFF:800
#START
11,
600000000000000000000000000000000008000000000000,
11,
3,
11,
11,
11,
3, //8
22,
22,
22,
4,
1110,
1110,
1110,
3, //16
2220,
2220,
2220,
4,
500000000000000000000000000000000000000008000000,
500000000000000000000000000000000000000008000000,
9009,
8, //24
1100,
1100,
1100,
3,
12,
34,
34,
#BPMCHANGE 139
3, //32
#GOGOSTART
11,
11,
11,
3,
12,
12,
12,
#BPMCHANGE 111
78, //40
#GOGOEND
1110,
1110,
1110,
3,
2,
22,
2,
4430, //48
1110,
1110,
1100,
39,
0980,
0, //54
#END

COURSE:Easy
LEVEL:1
BALLOON:8,4,8
SCOREINIT:1390,17770
SCOREDIFF:1490
#START
1,
600000000000000000000000000008000000000000000000,
1,
3,
1,
1,
1,
3, //8
1,
1,
1,
3,
11,
1,
11,
3, //16
1,
1,
1,
3,
500000000000000000000000000008000000000000000000,
500000000000000000000000000008000000000000000000,
9009,
8, //24
11,
1,
11,
3,
1,
33,
33,
#BPMCHANGE 139
3, //32
#GOGOSTART
1,
1,
1,
3,
11,
11,
11,
#BPMCHANGE 111
78, //40
#GOGOEND
1,
1,
1,
3,
2,
2,
2,
600000000000000008000000000000000000000000000000, //48
11,
11,
1,
39,
0980,
0, //54
#END
