//TJADB Project
TITLE:Goodbye Sengen
TITLEJA:グッバイ宣言
SUBTITLE:--Chinozo feat. flower
SUBTITLEJA:Chinozo feat. flower
BPM:170
WAVE:Goodbye Sengen.ogg
OFFSET:-1.235
DEMOSTART:36.176 //Shinuchi:
4410/2740/1600/1310/970

COURSE:Edit
LEVEL:9
BALLOON:8,8,11,12
SCOREINIT:330,970
SCOREDIFF:75
#START
400000000000400000000000100100200200202020200000,
1022121020112022,
100200100000200200100000100200100200101010200000,
100000200200100200100000100000202020100000200000,
200000100000200200100100200200100100202020200000,
1022121020112022,
1210201012121020,
100000200200100200100000100000202020100000200000,
2010221100002020, //9
111100000222200000111100,
000222200000111100000000,
111100000222200000111100,
000000202020200000000000500000000000000008000000,
300000200222200200111100,
200222200200111100200200,
111100200222200200111100,
200000101010100100200200100100100000200200100000, //17
111200000111200000111200,
0010202010112020,
222100000222100000222100,
0010202010112020,
1021122010211220,
1022221022102030,
0010201122222010,
0010001220001020, //25
#GOGOSTART
1011202210112010,
2011201022102020,
111100200200111100200200,
111100222200100400400000,
1011202210112010,
2011201012201020,
111100200200111100222200,
1010202010112020, //33
1011202210112010,
2011201012201020,
111100200200111100200200,
111100222200100400400000,
1011202210112010,
2011201012201020,
111100200200111100222200,
1010202011104000, //41
122200000122200000122200,
0011102010112020,
111200000111200000111200,
0022201020221010,
122200000122200000122200,
0011102010112020,
3000400030221000,
#GOGOEND
4000000010221020, //49
1000201010201022,
2010202010222020,
1020201020201022,
2011212010221211,
2010201020112022,
1021021010212020,
1021201022121020,
1021102020112010, //57
2000221111221122,
100100100100200200100100200100200000202020200000,
200200100100200200100100200200100100200000101010,
200000100000200000202020100000200200100100200000,
70080070,
000000800000000000100000200000100100202020200000,
100000202000202000100000100100200100100200100100,
2011102011112010, //65
2000201020112020,
1010201020112020,
1010202010112011,
2210221110004040,
0010221022112070,
00008007,
08,
20204444, //73
#GOGOSTART
1011202210112010,
2011201022102020,
111100200200111100200200,
111100222200100400400000,
1011202210112010,
2011201012201020,
111100200200111100222200,
1010202010112020, //81
1011202210112010,
2011201012201020,
111100200200111100200200,
500000000000000000000000000000000008000000000000,
1011202210112010,
2011201012201020,
111100200200111100222200,
1010202011104000, //89
122200200122200200122200,
1011102010112020,
111200100111200100111200,
1022201020221020,
1020102010221022,
1022102211221111,
11,
#GOGOEND
2,
0, //98
#END

COURSE:Oni
LEVEL:8
BALLOON:
SCOREINIT:420,1450
SCOREDIFF:103
#START
4000400010202220,
1010201000112020,
1010001012121020,
1022201000101020,
11212121,
1010201000112020,
1010001012121020,
1022201000102020,
1010202100102020, //9
10210120,
01221221,
10210120,
01221122,
1011002010110020,
500000000008000000000000100000200000200000100000,
10211020,
11212010, //17
30230230,
01221122,
30230230,
01221440,
1011002010110020,
500000000008000000100000200000200000100000300000,
01211123,
03033440, //25
#GOGOSTART
1011201110102010,
0010201011102010,
1000201110002010,
1110222010404000,
1011201010102010,
0010201011102010,
1000201011102220,
1010201010222020, //33
1011201110102010,
0010201011102010,
1000201110002010,
1110222010404000,
1011201010102010,
0010201011102010,
1000201011102220,
1010201011102000, //41
30230230,
0011102010102020,
30230233,
0022201020201020,
30230230,
0011102010102020,
3000400030221000,
#GOGOEND
40001212, //49
1500,
000000000000000008000000100000000000100000100000,
500000000000000000000000000000000000000008000000,
0011222011102220,
500000000000000000000000000000000000000008000000,
1001201010012010,
1001201022101010,
100000000100200000100000500000000000000008000000, //57
1000221110221110,
1110111022202220,
2210221022111010,
01220211,
44440233,
300300000100200100222000,
1020222012121011,
1011101010101010, //65
10201120,
11210121,
01221121,
01211033,
01210123,
03033004,
04044000,
20202222, //73
#GOGOSTART
1011201110102010,
0010201011102010,
1000201110002010,
1110222010404000,
1011201010102010,
0010201011102010,
1000201011102220,
1010201010222020, //81
1011201110102010,
01214040,
600000000000000000000000000008000000000000200000,
1010202220404000,
1011201010102010,
0010201011102010,
1000201011102220,
1010201011102000, //89
30230230,
0011102010102020,
30230233,
0022201020221020,
3434,
1000201010112220,
3434,
#GOGOEND
4,
0, //98
#END

COURSE:Hard
LEVEL:6
BALLOON:8
SCOREINIT:390,1840
SCOREDIFF:98
#START
40400122,
11210122,
1010001011101000,
11210122,
11212020,
11210122,
1010001011101000,
11210170,
08, //9
10210120,
01201221,
10210120,
01221210,
1011001010110010,
10001221,
1212,
11211020, //17
30030030,
01221210,
30030030,
01221440,
1011001010110010,
10012213,
01211103,
03033440, //25
#GOGOSTART
1011101010002010,
01211121,
10211021,
10101440,
1011101010002010,
01211121,
10211120,
11211000, //33
1011101010002010,
01211121,
10211021,
10101440,
1011101010002010,
01211121,
10211120,
3330, //41
30030030,
01121120,
30030033,
02212210,
30030030,
01121120,
3433,
#GOGOEND
40001220, //49
11210120,
01221120,
11210120,
01212020,
11210120,
01221120,
11210120,
0010200010111000, //57
11210120,
0010202010222000,
11210122,
01211212,
11210120,
0010202010222000,
1010201000222000,
500000000000000000000000000000000000000008000000, //65
10201120,
11210121,
01221121,
01211033,
01210123,
03033004,
04044000,
20202220, //73
#GOGOSTART
1011101010002010,
01211121,
10211021,
10101440,
1011101010002010,
01211121,
10211120,
11211000, //81
1011101010002010,
01214040,
600000000000000000000000000008000000000000200000,
11210440,
1011101010002010,
01211121,
10211120,
3330, //89
30030030,
01121120,
30030033,
02212210,
3434,
10211120,
3434,
#GOGOEND
4,
0, //98
#END

COURSE:Normal
LEVEL:5
BALLOON:6,5
SCOREINIT:500,3240
SCOREDIFF:138
#START
4400,
10010010,
01001010,
10010010,
01002020,
10010010,
01001010,
10010070,
08, //9
10010010,
01001000,
10010010,
01001000,
1212,
1011,
12,
1120, //17
30030030,
01001010,
30030030,
01001010,
1212,
10002006,
000000000000000000000000000008000000000000300000,
03003000, //25
#GOGOSTART
10111001,
0111,
10011001,
1110,
10111001,
0111,
10011010,
10111000, //33
10111001,
0122,
10011001,
1120,
10111001,
0122,
10011010,
3330, //41
30030030,
02002020,
30030030,
02002020,
30030030,
02002020,
3433,
#GOGOEND
41, //49
11010010,
01001010,
11010010,
01002020,
11010010,
01001010,
11010010,
01001110, //57
11010020,
01002020,
11010020,
01001010,
11010020,
01002020,
11010010,
500000000000000000000000000000000000000008000000, //65
0111,
10010001,
00101001,
00101033,
00110106,
000000000000000000000008000000000000000000700000,
000000000000000000000000080000000000000000000000,
2222, //73
#GOGOSTART
10111001,
0122,
10011001,
1120,
10111001,
0122,
10011010,
10111000, //81
10111001,
0133,
600000000000000000000000000008000000000000000000,
10110010,
10111001,
0122,
10011010,
3330, //89
30030030,
02002020,
30030030,
02002020,
3434,
10111010,
3434,
#GOGOEND
4,
0, //98
#END

COURSE:Easy
LEVEL:3
BALLOON:5,6,6,4,4
SCOREINIT:470,5710
SCOREDIFF:135
#START
4400,
1001,
01,
1001,
0011,
1001,
01,
100000000000000000000000000000000000700000000000,
08, //9
1001,
0,
1001,
0,
7,
8,
22,
2220, //17
30030030,
0,
30030030,
0,
7,
80000006,
0,
000000000000000000000008000000000000000000000000, //25
#GOGOSTART
10001001,
0011,
11,
1110,
10001001,
0011,
12,
2220, //33
10001001,
0011,
11,
1110,
10001001,
0011,
12,
3330, //41
30030030,
01,
30030030,
01,
30030030,
01,
3033,
#GOGOEND
3, //49
1001,
01,
1001,
0011,
1001,
01,
1001,
0011, //57
1002,
01,
1002,
0011,
1002,
01,
1001,
500000000000000000000000000000000000000008000000, //65
0110,
1,
11,
1116,
0,
000000000000000000000008000000000000000000700000,
000000000000000000000000080000000000000000000000,
2022, //73
#GOGOSTART
10001001,
0011,
11,
1110,
10001001,
0011,
12,
2220, //81
10001001,
0033,
600000000000000000000000000008000000000000000000,
700000000000000000000000000000080000000000000000,
10001001,
0011,
12,
3330, //89
30030030,
01,
40040040,
02,
3330,
1011,
3044,
#GOGOEND
4,
0, //98
#END
