//TJADB Project
TITLE:Odo
TITLEJA:踊
SUBTITLE:--Ado
SUBTITLEJA:Ado
BPM:128
WAVE:Odo.ogg
OFFSET:-1.161
DEMOSTART:73.349 //NS1/2 Shinuchi Score: 8150/5360/3160/2070

COURSE:Oni
LEVEL:8
BALLOON:3,3,3,3,4,3,3,3,3,18
SCOREINIT:750,2270
SCOREDIFF:188
#START
#MEASURE 2/4
#BARLINEOFF
00,
#MEASURE 4/4
#BARLINEON
10200201,
21211211,
10200200,
1010201120100020,
30223022,
30223012,
10211121,
21101111,
700000080000700000080000700000080000700000080000,
300200200000100222200100,
1011201210120020,
1021101210120020,
1010202010120010,
1010202210120020,
1011201210120020,
1021101210120020,
01110222,
000000700000000000080000100010100010200000100000,
100000100200000000100000200000200010200010200010,
100000100200000000100000200000200010200020100000,
1012002010120020,
1122102010102110,
1010121110101211,
100000200000100000200100100000100200100000001010,
2000401010012010,
11401121,
10200201,
21211211,
10200200,
1010201120102010,
30223022,
30223012,
10211121,
21101111,
#SCROLL 1.2
1
#SCROLL 1.4
1
#SCROLL 1.6
1
#SCROLL 1.8
1,
#SCROLL 2
700000800000
#SCROLL 2.2
700008000000
#SCROLL 2.4
700008000000
#SCROLL 2.6
700008000000,
#SCROLL 2.8
700000000000000008000000,
#SCROLL 1
3000121120103040,
#GOGOSTART
1020201210210122,
1020201210210120,
112200112200,
1122102010211120,
1020201210210122,
1020201210210120,
221100112200,
100100200200100000100000200000202020200000200000,
#GOGOEND
3000122212012220,
1221012102111200,
1022121110201020,
1022121110201000,
2000122201211210,
2000122201211210,
1022121110201020,
100000200200100200100100100000101010200000200000,
,
,
,
,
#END

COURSE:Hard
LEVEL:5
BALLOON:14,12,6,2,2,2,2,14
SCOREINIT:810,3430
SCOREDIFF:223
#START
#MEASURE 2/4
#BARLINEOFF
00,
#MEASURE 4/4
#BARLINEON
10200201,
21201210,
10200200,
11221102,
30223022,
30223020,
10201121,
10101111,
900000000000000000000000000000000009000000000008,
,
1011100010100010,
11101102,
11121101,
11121102,
11101101,
11101102,
01110111,
7008,
1011001010002000,
1011001010002000,
1011001010110010,
11221110,
1010111010101110,
1010201020202002,
2000001010011000,
70081120,
10200201,
21201210,
10200200,
11221102,
30223022,
30223020,
10201121,
10101111,
1111,
78787878,
900000000000000000000000000000000009000000000008,
,
#GOGOSTART
11201200,
11201020,
111100111100,
11221120,
11201200,
11201020,
222200222200,
11221100,
#GOGOEND
3000102010011020,
1022022010102000,
1011011010102020,
1011011010102000,
1000101100102000,
1000101100202000,
1011011010102020,
500000000000000000000000000000000000000008000000,
,
,
,
,
#END

COURSE:Normal
LEVEL:3
BALLOON:10,8,6,2,2,2,2,10
SCOREINIT:900,5920
SCOREDIFF:305
#START
#MEASURE 2/4
#BARLINEOFF
00,
#MEASURE 4/4
#BARLINEON
1200,
2201,
1200,
1110,
3030,
3030,
1121,
10101110,
900000000000000000000000000000000009000000000008,
,
10101100,
1110,
10101100,
10102200,
10101100,
10101100,
01100110,
7008,
11001020,
11001020,
11001100,
10101110,
1121,
1122,
20011010,
7080,
1200,
2201,
1200,
1110,
3030,
3030,
1121,
10101110,
1111,
78787878,
900000000000000000000000000000000009000000000008,
,
#GOGOSTART
11101000,
11101000,
1212,
11101110,
11101000,
11101000,
2121,
11101000,
#GOGOEND
3212,
10001120,
10001110,
10001110,
1212,
10001220,
10001110,
500000000000000000000000000000000000000008000000,
,
,
,
,
#END

COURSE:Easy
LEVEL:2
BALLOON:8,10,4,8
SCOREINIT:860,9060
SCOREDIFF:450
#START
#MEASURE 2/4
#BARLINEOFF
00,
#MEASURE 4/4
#BARLINEON
1,
2200,
1,
1010,
3030,
3030,
1020,
1011,
900000000000000000000000000000000009000000000008,
,
1010,
1110,
1010,
2020,
1010,
1110,
07000000,
000000080000000000000000000000000000000000000000,
1011,
1011,
1010,
1111,
1020,
1022,
2010,
7080,
1,
2200,
1,
1010,
3030,
3030,
1020,
1011,
1010,
1010,
900000000000000000000000000000000009000000000008,
,
#GOGOSTART
1110,
1110,
1010,
1110,
1110,
1110,
2020,
1110,
#GOGOEND
3012,
1022,
1011,
1011,
1012,
1022,
1011,
500000000000000000000000000000000000000008000000,
,
,
,
,
#END
