//TJADB Project
TITLE:Akeboshi
TITLEJA:明け星
SUBTITLE:--LiSA/Kimetsu no Yaiba: Mugen Ressha
BPM:95
WAVE:Akeboshi.ogg
OFFSET:-2.793
DEMOSTART:41.240

COURSE:Oni
LEVEL:6
BALLOON:16,22,22,66
SCOREINIT:4210
SCOREDIFF:0
#START
#BARLINEOFF
000000000000000000000000000000000000200200200200,
#BARLINEON
100100100000200000100000100100100000200000200200,
100100100000200000100000200000200000100100100000,
100000100000100000000000200000100000200000200000,
100000100100000100500000000000000008000000200000,
100000100000100000200000100000100100100000700000,
00008022,
100000100000100000000000200000100000200000200000,
100000100100000100500000000000000008000000200000,
100000100000100000200200100000100100200200200000,
200000100000200000200000100000200000200000200000,
700000000000000000000000000000000000000000800000,
200000100000200000200000100000200000200000200000,
700000000000000000000000000000000000000000800000,
100100100000100100100000300000300000000000000000,
#MEASURE 2/4
500000000000000008000000,
#GOGOSTART
#MEASURE 4/4
100000100100200100100000100000100100200100100000,
100000100000100000100100200000100000200000200000,
100000100100200000200000100000100100200000200000,
100000000100500000000008000000100000200000200000,
100000100000100100200000200000200000200200100000,
100000100000100100000100500000000008000000100100,
100000200200000100100000100000100000200000100100,
100000200200100100100000300000000000300000000000,
100000100100200100100000100000100100200100100000,
100000100000100000100100200000100000200000200000,
100000200200100000200000100000100100200000200000,
100000000100500000000008000000100000200000200000,
100000200200100100100000100000100100200200200000,
100000100000200000200000100000100100200200100000,
100100100000200200200000100100100000300000700000,
,
000000000000000000000000000000000000000000000008,
#GOGOEND
#END

COURSE:Hard
LEVEL:5
BALLOON:23,16,16,44,44,44
SCOREINIT:6160
SCOREDIFF:0
#START
#BARLINEOFF
,
#BARLINEON
11201122,
11202210,
10102120,
10102120,
11107000,
0082,
10102120,
10102120,
1010100010102220,
20202220,
70000008,
20202220,
70000008,
30303300,
#MEASURE 2/4
2,
#SECTION
#BRANCHSTART p,75,90
#N
#GOGOSTART
#MEASURE 4/4
11201120,
11110220,
11201120,
500000000000000000000008000000100000100000000000,
11202220,
500000000000000000000000000000000008000000000000,
11201110,
11103030,
11201120,
11110220,
22102210,
500000000000000000000008000000100000100000000000,
11102220,
10102220,
30303039,
,
000000000000000000000000000000000000000000000008,
#E
#GOGOSTART
#MEASURE 4/4
11211121,
11220220,
11211121,
500000000000000000000008000000100000100000000000,
11221122,
500000000000000000000000000000000008000000000000,
11201120,
1011101030003000,
11211121,
11220220,
22112211,
500000000000000000000008000000100000100000000000,
11112222,
10102220,
30303039,
,
000000000000000000000000000000000000000000000008,
#M
#GOGOSTART
#MEASURE 4/4
1011101010111010,
11220220,
11211121,
500000000000000000000008000000100000100000000000,
1010111010102020,
500000000000000000000000000000000008000000000000,
11211121,
1011101030003000,
1011101010111010,
11220220,
22121122,
500000000000000000000008000000100000100000000000,
1010111020202020,
1000100020222000,
1110111011103090,
,
000000000000000000000000000000000000000000000008,
#BRANCHEND
#GOGOEND
#END

COURSE:Normal
LEVEL:2
BALLOON:15,12,12,33
SCOREINIT:10310
SCOREDIFF:0
#START
#BARLINEOFF
,
#BARLINEON
100000000000100000000000100000000000000000000000,
100000000000100000000000100000000000200000000000,
100000000000100000000000000000000000200000000000,
100000000000100000000000000000000000200000000000,
100000100000100000000000700000000000000000000000,
000000000000000000000000800000000000200000000000,
100000000000100000000000000000000000200000000000,
100000000000100000000000000000000000200000000000,
100000100000100000000000100000000000200000000000,
200000000000000000000000200000000000200000000000,
700000000000000000000000000000000000000000800000,
200000000000000000000000200000000000200000000000,
700000000000000000000000000000000000000000800000,
300000000000300000000000300000300000000000000000,
#MEASURE 2/4
,
#GOGOSTART
#MEASURE 4/4
100000100000100000000000100000100000100000000000,
100000000000100000000000000000000000200000000000,
100000100000100000000000100000100000100000000000,
500000000000000000000008000000000000000000000000,
100000100000100000000000200000200000200000000000,
500000000000000000000000000000000008000000000000,
100000000000100000000000200000000000000000000000,
100000000000100000000000300000000000300000000000,
100000100000100000000000100000100000100000000000,
100000000000100000000000000000000000200000000000,
200000200000200000000000200000200000200000000000,
500000000000000000000008000000000000000000000000,
200000200000200000000000100000100000100000000000,
100000000000100000000000200000200000200000000000,
300000000000300000000000300000000000300000900000,
000000000000000000000000000000000000000000000000,
000000000000000000000000000000000000000000000008,
#GOGOEND
#END

COURSE:Easy
LEVEL:1
BALLOON:13,8,8,22
SCOREINIT:18380
SCOREDIFF:0
#START
#BARLINEOFF
000000000000000000000000000000000000000000000000,
#BARLINEON
100000000000000000000000100000000000000000000000,
100000000000000000000000200000000000000000000000,
100000000000100000000000000000000000000000000000,
100000000000000000000000000000000000000000000000,
100000000000100000000000700000000000000000000000,
000000000000000000000000800000000000000000000000,
100000000000100000000000000000000000000000000000,
100000000000000000000000000000000000000000000000,
100000000000100000000000100000000000000000000000,
200000000000000000000000200000000000000000000000,
700000000000000000000000000000000000000000800000,
200000000000000000000000200000000000000000000000,
700000000000000000000000000000000000000000800000,
300000000000300000000000300000000000000000000000,
#MEASURE 2/4
,
#GOGOSTART
#MEASURE 4/4
100000000000100000000000100000000000100000000000,
100000000000000000000000200000000000000000000000,
100000000000000000000000100000000000100000000000,
500000000000000000000008000000000000000000000000,
100000000000000000000000100000000000100000000000,
500000000000000000000000000008000000000000000000,
100000000000000000000000000000000000000000000000,
100000000000000000000000300000000000000000000000,
100000000000100000000000100000000000100000000000,
100000000000000000000000200000000000000000000000,
200000000000000000000000200000000000200000000000,
500000000000000000000008000000000000000000000000,
100000000000000000000000100000000000100000000000,
100000000000000000000000200000000000000000000000,
300000000000300000000000300000000000000000900000,
000000000000000000000000000000000000000000000000,
000000000000000000000000000000000000000000000008,
#GOGOEND
#END
