//TJADB Project
TITLE:Dadakko Monster
TITLEJA:駄々っ子モンスター
SUBTITLE:--Mirai feat. Chata
BPM:183
WAVE:Dadakko Monster.ogg
OFFSET:-1.504
DEMOSTART:11.995

COURSE:Oni
LEVEL:7
SCOREINIT:500
SCOREDIFF:133
#START
11110111,
22201020,
#BPMCHANGE 182.98
11220222,
1010200010102222,
#BPMCHANGE 183
1010201210102000,
1010201210222050,
000000000000000000000000000000000008000000000000,
11113333,
1000200210200020,
0010200210102000,
1000200210200020,
01201120,
11220101,
0010200210102000,
1010200210100020,
0010201022102210,
1000200210100020,
0010200210102000,
1000200210100020,
0210201210102000,
11220102,
01201120,
1010201110102011,
1010202222102222,
21212121,
21220212,
21212121,
21212020,
11211121,
11212121,
12012012,
01200222,//32
#GOGOSTART
3000201210102010,
3000201210102010,
11112022,
10101220,
3000201210102010,
3000201210102000,
11212212,
11212212,
12212121,
21103334,
01212212,
11212212,
01212120,
40000222,
3000202210102010,
3000202210102010,
11221021,
1000201210202000,
3000201210100040,
0010222210222010,//52
#GOGOEND
10220020,
11220020,
10220020,
1000201022111120,
1010200210102000,
1010200210222050,
000000000000000000000000000000000008000000000000,
11111333,
40402121,
40402121,
40402121,
40402121,
41404140,
41414040,
43043043,
04300222,
10012012,
10102012,
10112011,
10102120,
10012111,
1000100020002220,//74
#GOGOSTART
1010201120201020,
1010201120201022,
12211212,
1022100010404030,
0011201020201022,
1010201120201040,
0011102000111020,
11433000,
#END

COURSE:Hard
LEVEL:5
SCOREINIT:540
SCOREDIFF:153
#START
10110110,
2210,
#BPMCHANGE 182.98
10110210,
2210,
#BPMCHANGE 183
10110110,
20201225,
000000000000000000000000000000000008000000000000,
11113333,
10201201,
01201020,
10000202,
01000120,
10120101,
01101000,
10202101,
01102000,
10201202,
01201020,
10000202,
01000120,
11220101,
01101000,
10000002,
01202201,
0110,
10110205,
000000000000000000000000000000000000000000000008,
0022,
21212000,
21212000,
12012012,
01200220,//32
#GOGOSTART
30233020,
30233020,
10111022,
2120,
30233020,
30233020,
10101210,
10121210,
10101210,
10121233,
01201210,
10121011,
01201020,
40000220,
30233320,
30233320,
11221021,
10101220,
30233220,
30233220,//52
#GOGOEND
10220020,
00220020,
10220020,
00220020,
10201120,
10201125,
000000000000000000000000000000000008000000000000,
11111201,
00202121,
20202121,
20212121,
20212121,
20202120,
20202120,
33044033,
04400220,
10002001,
1121,
10002001,
10102110,
10002001,
10102022,//74
#GOGOSTART
12121201,
01201202,
12121201,
01201223,
02121201,
01201201,
01120202,
3430,
,
,
,
#END

COURSE:Normal
LEVEL:5
BALLOON:8
SCOREINIT:690
SCOREDIFF:220
#START
1,
1110,
#BPMCHANGE 182.98
1,
2220,
#BPMCHANGE 183
1,
10101007,
,
8,
00101001,
0110,
10000202,
,
10110101,
,
10000001,
0120,
10201001,
0210,
10000202,
,
10210101,
0110,
10000002,
0220,
1111,
10110105,
000000000000000000000000000000000000000000000008,
0022,
11101010,
1110,
11011011,
01100000,//32
#GOGOSTART
30033000,
30033000,
10111010,
2220,
30033000,
30033000,
10101101,
0220,
11,
2220,
10101102,
0220,
11,
4,
30033020,
30033020,
10111020,
1110,
30033020,
30033020,//52
#GOGOEND
1,
11101000,
1,
22202000,
1,
11101005,
000000000000000000000000000000000000000000000008,
,
1212,
10110100,
1212,
1022,
11110000,
,
11022011,
02200000,
20022000,
20022000,
2211,
2220,
20022010,
2220,//74
#GOGOSTART
10101101,
0220,
11101010,
2220,
10101101,
00202011,
01110100,
3430,
,
,
,
#END

COURSE:Easy
LEVEL:4
BALLOON:4
#START
,
11,
#BPMCHANGE 182.98
,
11,
#BPMCHANGE 183
,
10001007,
,
8,
0110,
0110,
1,
1,
11,
1,
1,
2,
0110,
0110,
1,
2,
11,
1,
2,
2,
11,
10100005,
000000000000000000000000000000000000000000000008,
,
1100,
,
10010010,
01000000,//32
#GOGOSTART
3330,
3330,
1,
22,
3330,
3330,
1,
0110,
1,
1110,
1,
0110,
12,
3,
3330,
3330,
11,
2220,
3330,
3330,//52
#GOGOEND
,
11,
,
22,
,
10001005,
000000000000000000000000000000000000000000000008,
,
1110,
1,
1110,
1,
1100,
,
30030030,
03000000,
02,
02,
02,
0220,
02,
02,//74
#GOGOSTART
33,
0110,
33,
0220,
33,
0110,
34,
3330,
,
,
,
#END
