//TJADB Project
TITLE:exTora Trap‼
TITLEJA:ex寅 Trap!!
SUBTITLE:--Kaneko Chiharu
SUBTITLEJA:かねこちはる
BPM:150
WAVE:exTora Trap!!.ogg
OFFSET:-1.524
DEMOSTART:81.521 //Shinuchi:
5100/3330/2030/1110

COURSE:Oni
LEVEL:10
BALLOON:
SCOREINIT:420,1130
SCOREDIFF:105
#START
10102001,
000000200000100000000000200000000000100100101010,
10102001,
000000200000100000000000200000000000100100101010,
1011111120120010,
000200100000100000000100200000100000000200101010,
1011111120120010,
0210100120100200, //8
1021021100102010,
100000200100000200100100000000100000200100101010,
1021021100102010,
100000200100000200100100200200000200200000202020,
1020120210201202,
1020120212212011,
200200100200200100200200100200200100202010202010,
200000000200000000200000201010100100200200200200, //16
1012111210201120,
200200200100200200200100202000200000202000200000,
1011221210201120,
101000100000101000100000200200100100200000202020,
100000100200100100100200100010001000500008000000,
200020002000500008000000202020200000100000200200,
1011221222121020,
100000200000200200201010102020200200100200200200, //24
100000000000100100102020100000200000500008000000,
1222122211112020,
100100102020100100102020100000200000500008000000,
100200200200100000202020100200200200100100200200,
100000000000100100102020100000200000500008000000,
1222122211112020,
100100102020100100102020100000200000500008000000,
100200200200100200200200101010100000101010100000, //32
40001002,
000200200000100000000222,
20001002,
000200200000100000000222,
2022221210222012,
0022221210222022,
202020200200200200100200100000200200200000100200,
0022221210200000, //40
1021021021201021,
000000100200000100200000100000200100200200102020,
1021021021201021,
000000100200000100200000200200100100200000101010,
21212121,
200200100100200200100100202020101010202020101010,
200000100100200000101010200200200100200000100200,
100000100100200200101010202020101010202020200000,
100000100100200000101010200200200100200000100200,
100000000020200000000000200000000200000000200200, //50
#GOGOSTART
1020120121020002,
1020120121020000,
1021020020210200,
100000200100000100200100000200000200200000202020,
1020120121020111,
200020001000200100200100000100000200000000101010,
200000200100000100100200101020100000200200100100,
200000100200000000500000000000000000000008000000, //58
1010220102112202,
100000100200000100200000000010101010102020202020,
1021020020210200,
100000200100000100200100000200200200102020202020,
1010220102210222,
1210220201112222,
101000000100000000100000202000000200000000200000,
101000000100000000200000300000000300000000300000,
#GOGOEND
4002002040020020,
400000000200000000200000400000004000000040000000, //68
3011111120120010,
000200100000100000000100200000200100200200101010,
1011112120120020,
300000200100000200100000202020202020100200101010,
1021112120120010,
000200100000100000100200100000200200100200102020,
1021121120120122,
000200100200100100200200101010101010202020202020, //76
1022021120120122,
1022021120120122,
1021012210210122,
100100200200100100200200101010100100200200200000,
3,
0, //82
#END

COURSE:Hard
LEVEL:7
BALLOON:
SCOREINIT:560,2140
SCOREDIFF:145
#START
12,
0120,
12,
0120,
1000101020020020,
0200100100200200,
1000101020020020,
0200100100200200, //8
1011011000002000,
1011011000002000,
1011011000002000,
1011011020000000,
1010220010102200,
1010220000000000,
600000000000000000000000000000000000000000000008,
04, //16
1010111000202000,
2220222020202000,
1010222020202000,
2020202022202000,
100000100000100100100000200020002000200000000000,
200020002000200000200000200200200000200000000000,
1010222022202000,
34, //24
1000111010102000,
2220222020202000,
1010111010102000,
2220200020202000,
1000111010102000,
2220222020202000,
1010111010102000,
2220222020002000, //32
32,
0000000020000011,
12,
0000000020000011,
10002100,
10012100,
10002100,
10012100, //40
1001001001002002,
0020020010010020,
1001001001002002,
0020020011102000,
11221122,
500000000000000000000000000000000000000008000000,
1000111022202020,
1000111022202020,
1000111022202020,
3, //50
#GOGOSTART
1010110202020000,
1010110202020000,
1011020010110200,
1011011002022000,
1010110202020000,
100010001000100000000200000200000200000000000000,
1011020011102000,
600000000000000000000000000000000008000000000000, //58
1010220101022200,
1001001000002000,
1011020010110200,
1011010102022000,
1010220101020220,
1010220200000000,
3001002030010020,
3001002030030030,
#GOGOEND
2002002020020020,
2002002040000000, //68
1000101020020020,
0200100100200200,
1000101020020020,
3003003000004000,
1000101020020020,
0200101010220220,
1000101020020020,
0200101010220220, //76
3000001110020220,
3000001110020220,
3002022030020220,
600000000000000000000008000000000000100100100000,
3,
0, //82
#END

COURSE:Normal
LEVEL:6
BALLOON:
SCOREINIT:690,3800
SCOREDIFF:208
#START
12,
02,
12,
02,
1000100020020020,
0000200200200000,
1000100020020020,
0000200200200000, //8
1001001000000000,
1001001000000000,
1001001000000000,
1001001020000000,
3232,
3200,
600000000000000000000000000000000000000000000008,
04, //16
10110000,
20222000,
11202000,
22202000,
10110000,
20222000,
11202020,
34, //24
10101110,
2220,
10101110,
2220,
10101110,
2220,
10101110,
2220, //32
32,
02,
12,
02,
12,
00012000,
12,
00012000, //40
1001001000001001,
01002000,
1001001000001001,
01002000,
1111,
500000000000000000000000000000000008000000000000,
10002220,
10102220,
10002220,
3, //50
#GOGOSTART
1010100002020000,
1010100002020000,
3003000030030000,
4004004000000000,
1010100002020000,
1000100002020000,
3003000040000000,
600000000000000000000000000000000008000000000000, //58
1010100200202000,
1001001000000000,
3003000030030000,
4004004000000000,
1010100202020000,
1010100200000000,
1001000010010000,
1001000030030000,
#GOGOEND
22,
24, //68
1000100020020020,
0000200200200000,
1000100020020020,
500000000000000000000008000000000000000000000000,
1000101020020020,
0000202020020000,
1000101020020020,
0000202020020000, //76
3000000020020020,
3000000020020020,
3434,
600000000000000000000008000000000000000000000000,
3,
0, //82
#END

COURSE:Easy
LEVEL:4
BALLOON:
SCOREINIT:590,5940
SCOREDIFF:213
#START
11,
02,
11,
02,
10101002,
0220,
10101002,
0220, //8
3,
3,
3,
32,
33,
3,
600000000000000000000000000000000000000000000008,
0, //16
1100,
22,
1110,
2220,
1100,
22,
1110,
3, //24
1011,
22,
1011,
22,
1011,
22,
1011,
22, //32
3,
0,
1,
0,
12,
02,
12,
02, //40
10010010,
01,
10010010,
02,
1111,
500000000000000000000000000008000000000000000000,
1022,
1022,
1022,
3, //50
#GOGOSTART
1120,
1120,
33,
4,
1120,
2220,
33,
600000000000000000000000000008000000000000000000, //58
1110,
20020000,
33,
4,
1111,
2220,
1001000010000000,
1001000010000000,
#GOGOEND
22,
24, //68
10101002,
0220,
1110,
500000000000000000000008000000000000000000000000,
10101002,
0220,
10101002,
0220, //76
3022,
3022,
3333,
600000000000000000000008000000000000000000000000,
3,
0, //82
#END
