//TJADB Project
TITLE:The Distance of Love
TITLEJA:以後別做朋友 The Distance of Love
SUBTITLE:--
SUBTITLEJA:
BPM:130.75
WAVE:The Distance of Love.ogg
OFFSET:-3.333
DEMOSTART:75.256

COURSE:Oni
LEVEL:6
BALLOON:23,29
SCOREINIT:3520
SCOREDIFF:0
#START
#MEASURE 8/4
#SCROLL 0.51
2022000000002000,
#BPMCHANGE 131.44
20002020000000000000000020020020,
#BPMCHANGE 130.81
1022022010220220,
#BPMCHANGE 131.11
7008, //4
#BPMCHANGE 130.98
02112122,
#BPMCHANGE 131.18
1000002200000000,
#BPMCHANGE 130.77
02112122,
#BPMCHANGE 131.18
10022000, //8
#BPMCHANGE 131.05
0000222020102020,
#BPMCHANGE 130.75
11220022,
#BPMCHANGE 130.7
1020201000102220,
#BPMCHANGE 131.86
0210, //12
#BPMCHANGE 130.52
0020101020102220,
#BPMCHANGE 131.1
1000001110002000,
#BPMCHANGE 131
0020101020102220,
#BPMCHANGE 131.04
1000002220001000, //16
#BPMCHANGE 130.68
1000111020102020,
#BPMCHANGE 131.35
1010222000002020,
#BPMCHANGE 131
1020111000102220,
#BPMCHANGE 128.61
#SCROLL 0.52
00121121, //20
#BPMCHANGE 130.96
#SCROLL 1.02
#GOGOSTART
10001010200010111000101020002000,
#BPMCHANGE 131
1011201010121020,
#BPMCHANGE 131.01
1011201010112110,
#BPMCHANGE 131
600000000000000000000000000000000000000000000000000000000008000000000000100000200000100000000000, //24
10001010200020111000101020002000,
#BPMCHANGE 130.91
100000000000100000100000200000000000100000500000
#GOGOEND
#BPMCHANGE 129.7
#SCROLL 1.03
000000000000000000000000000000000008000000000000,
#BARLINEOFF
#MEASURE 4/4
#SCROLL 0.51
00000022, //27
#BARLINEON
#MEASURE 8/4
#BPMCHANGE 132.25
#SCROLL 0.5
1022001220210102,
#BPMCHANGE 130.85
#SCROLL 1.02
#GOGOSTART
500000000000000000000000000000000000000008000000200000200000200000000000200000200000100000100000,
#BPMCHANGE 131.03
10001010200020101000101020100011,
#BPMCHANGE 131
10001020100020201020100010010010, //31
600000000000000000000000000000000000000000000000000000000008000000000000200000000200000000200000,
#BPMCHANGE 131.01
600000000000000000000000000000000000000000000000000000000000000000000000000000000000000000000008,
#GOGOEND
#BPMCHANGE 129.19
#SCROLL 1.03
0000
#SCROLL 0.52
0222, //34
#BPMCHANGE 131.35
#SCROLL 0.51
1022200010002020,
#BPMCHANGE 129.35
#SCROLL 0.52
1220200010022020,
#BPMCHANGE 129.95
#SCROLL 0.51
1022100010221110,
#BPMCHANGE 133.37
#SCROLL 1
#GOGOSTART
600000000000000000000000000000000000000000000000000000000008000000000000200000200000100000000000, //38
#BPMCHANGE 130.6
#SCROLL 1.02
10001010200020111000101020002000,
#MEASURE 4/4
#BPMCHANGE 131.15
10112110,
#GOGOEND
#BARLINEOFF
#MEASURE 8/4
#BPMCHANGE 143.13
#SCROLL 0.93
500000000000000000000000000000000000000000000000000000000000000000000000000000000000000000000008,
#MEASURE 4/4
#BPMCHANGE 107.11
#SCROLL 0.5
0, //42
#BARLINEON
#MEASURE 8/4
#BPMCHANGE 137.15
2220
#BPMCHANGE 118.8
#SCROLL 0.58
2220,
#BARLINEOFF
#MEASURE 6/4
#BPMCHANGE 95.23
#SCROLL 0.5
00
#BPMCHANGE 93
0027,
#BARLINEON
#MEASURE 8/4
000000000000000000080000000000000000000000000000, //45
#END

COURSE:Hard
LEVEL:4
BALLOON:20,20
SCOREINIT:4360
SCOREDIFF:0
#START
#MEASURE 8/4
#SCROLL 0.51
2022000000002000,
#BPMCHANGE 131.44
20002020000000000000000020020020,
#BPMCHANGE 130.81
1022002010220000,
#BPMCHANGE 131.11
7008, //4
#BPMCHANGE 130.98
02112122,
#BPMCHANGE 131.18
1000002200000000,
#BPMCHANGE 130.77
02112122,
#BPMCHANGE 131.18
10022000, //8
#BPMCHANGE 131.05
0000222020102020,
#BPMCHANGE 130.75
11220022,
#BPMCHANGE 130.7
12210121,
#BPMCHANGE 131.86
0210, //12
#BPMCHANGE 130.52
02112122,
#BPMCHANGE 131.1
1000001110000000,
#BPMCHANGE 131
02112122,
#BPMCHANGE 131.04
1000002220000000, //16
#BPMCHANGE 130.68
0000111020102010,
#BPMCHANGE 131.35
11220022,
#BPMCHANGE 131
12210121,
#BPMCHANGE 128.61
#SCROLL 0.52
00201121, //20
#BPMCHANGE 130.96
#SCROLL 1.02
#GOGOSTART
1011100010112020,
#BPMCHANGE 131
1011100010102020,
#BPMCHANGE 131.01
1011100010110110,
#BPMCHANGE 131
600000000000000000000000000000000000000000000000000000000008000000000000100000000000200000000000, //24
1011101010112020,
#BPMCHANGE 130.91
100000000000100000100000100000000000100000500000
#GOGOEND
#BPMCHANGE 129.7
#SCROLL 1.03
000000000000000000000000000000000008000000000000,
#BARLINEOFF
#MEASURE 4/4
#SCROLL 0.51
0, //27
#BARLINEON
#MEASURE 8/4
#BPMCHANGE 132.25
#SCROLL 0.5
1022002010220101,
#BPMCHANGE 130.85
#SCROLL 1.02
#GOGOSTART
500000000000000000000000000000000000000000000008000000000000000000000000000000000000000000000000,
#BPMCHANGE 131.03
1011200010112100,
#BPMCHANGE 131
10001010100010101000100010010010, //31
600000000000000000000000000000000000000000000000000000000008000000000000200000000200000000200000,
#BPMCHANGE 131.01
600000000000000000000000000000000000000000000000000000000000000000000000000000000000000000000008,
#GOGOEND
#BPMCHANGE 129.19
#SCROLL 1.03
0000
#SCROLL 0.52
0222, //34
#BPMCHANGE 131.35
#SCROLL 0.51
12200022,
#BPMCHANGE 129.35
#SCROLL 0.52
12200022,
#BPMCHANGE 129.95
#SCROLL 0.51
12103330,
#BPMCHANGE 133.37
#SCROLL 1
#GOGOSTART
600000000000000000000000000000000000000000000000000000000008000000000000100000000000100000000000, //38
#BPMCHANGE 130.6
#SCROLL 1.02
1011101010112020,
#MEASURE 4/4
#BPMCHANGE 131.15
10111010,
#GOGOEND
#BARLINEOFF
#MEASURE 8/4
#BPMCHANGE 143.13
#SCROLL 0.93
500000000000000000000000000000000000000000000000000000000000000000000000000000000000000000000008,
#MEASURE 4/4
#BPMCHANGE 107.11
#SCROLL 0.5
0, //42
#BARLINEON
#MEASURE 8/4
#BPMCHANGE 137.15
2220
#BPMCHANGE 118.8
#SCROLL 0.58
2220,
#BARLINEOFF
#MEASURE 6/4
#BPMCHANGE 95.23
#SCROLL 0.5
00
#BPMCHANGE 93
0027,
#BARLINEON
#MEASURE 8/4
000000000000000000080000000000000000000000000000, //45
#END

COURSE:Normal
LEVEL:2
BALLOON:14,15
SCOREINIT:6550
SCOREDIFF:0
#START
#MEASURE 8/4
#SCROLL 0.51
22000020,
#BPMCHANGE 131.44
22000010,
#BPMCHANGE 130.81
11,
#BPMCHANGE 131.11
7008, //4
#BPMCHANGE 130.98
02202020,
#BPMCHANGE 131.18
2,
#BPMCHANGE 130.77
02202020,
#BPMCHANGE 131.18
2, //8
#BPMCHANGE 131.05
00222020,
#BPMCHANGE 130.75
20220020,
#BPMCHANGE 130.7
20220222,
#BPMCHANGE 131.86
0, //12
#BPMCHANGE 130.52
01101011,
#BPMCHANGE 131.1
10011000,
#BPMCHANGE 131
01101011,
#BPMCHANGE 131.04
10022000, //16
#BPMCHANGE 130.68
00101111,
#BPMCHANGE 131.35
10220011,
#BPMCHANGE 131
10220111,
#BPMCHANGE 128.61
#SCROLL 0.52
0211, //20
#BPMCHANGE 130.96
#SCROLL 1.02
#GOGOSTART
11101022,
#BPMCHANGE 131
11101022,
#BPMCHANGE 131.01
1011000010110100,
#BPMCHANGE 131
600000000000000000000000000000000000000000000000000000000008000000000000100000000000000000000000, //24
1011000010110000,
#BPMCHANGE 130.91
100000000000100000100000000000000000100000500000
#GOGOEND
#BPMCHANGE 129.7
#SCROLL 1.03
000000000000000000000000000000000008000000000000,
#BARLINEOFF
#MEASURE 4/4
#SCROLL 0.51
0, //27
#BARLINEON
#MEASURE 8/4
#BPMCHANGE 132.25
#SCROLL 0.5
22002200,
#BPMCHANGE 130.85
#SCROLL 1.02
#GOGOSTART
500000000000000000000000000000000000000000000008000000000000000000000000000000000000000000000000,
#BPMCHANGE 131.03
1011000020220000,
#BPMCHANGE 131
1011101110002000, //31
600000000000000000000000000000000000000000000000000000000008000000000000200000000000000000000000,
#BPMCHANGE 131.01
600000000000000000000000000000000000000000000000000000000000000000000000000000000000000000000008,
#GOGOEND
#BPMCHANGE 129.19
#SCROLL 1.03
00
#SCROLL 0.52
02, //34
#BPMCHANGE 131.35
#SCROLL 0.51
22200020,
#BPMCHANGE 129.35
#SCROLL 0.52
22200020,
#BPMCHANGE 129.95
#SCROLL 0.51
11103330,
#BPMCHANGE 133.37
#SCROLL 1
#GOGOSTART
600000000000000000000000000000000000000000000000000000000008000000000000100000000000000000000000, //38
#BPMCHANGE 130.6
#SCROLL 1.02
1011000020220000,
#MEASURE 4/4
#BPMCHANGE 131.15
10111010,
#GOGOEND
#BARLINEOFF
#MEASURE 8/4
#BPMCHANGE 143.13
#SCROLL 0.93
500000000000000000000000000000000000000000000000000000000000000000000000000000000000000000000008,
#MEASURE 4/4
#BPMCHANGE 107.11
#SCROLL 0.5
0, //42
#BARLINEON
#MEASURE 8/4
#BPMCHANGE 137.15
2220
#BPMCHANGE 118.8
#SCROLL 0.58
2220,
#BARLINEOFF
#MEASURE 6/4
#BPMCHANGE 95.23
#SCROLL 0.5
00
#BPMCHANGE 93
0027,
#BARLINEON
#MEASURE 8/4
000000000000000000080000000000000000000000000000, //45
#END

COURSE:Easy
LEVEL:2
BALLOON:11,11
SCOREINIT:11470
SCOREDIFF:0
#START
#MEASURE 8/4
#SCROLL 0.51
2,
#BPMCHANGE 131.44
2,
#BPMCHANGE 130.81
11,
#BPMCHANGE 131.11
7008, //4
#BPMCHANGE 130.98
0220,
#BPMCHANGE 131.18
2,
#BPMCHANGE 130.77
0220,
#BPMCHANGE 131.18
22, //8
#BPMCHANGE 131.05
0220,
#BPMCHANGE 130.75
20220000,
#BPMCHANGE 130.7
20220222,
#BPMCHANGE 131.86
0, //12
#BPMCHANGE 130.52
0111,
#BPMCHANGE 131.1
11,
#BPMCHANGE 131
0111,
#BPMCHANGE 131.04
12, //16
#BPMCHANGE 130.68
00101110,
#BPMCHANGE 131.35
10220010,
#BPMCHANGE 131
10220111,
#BPMCHANGE 128.61
#SCROLL 0.52
01, //20
#BPMCHANGE 130.96
#SCROLL 1.02
#GOGOSTART
11101020,
#BPMCHANGE 131
11101020,
#BPMCHANGE 131.01
1011,
#BPMCHANGE 131
600000000000000000000000000000000000000000000000000000000008000000000000000000000000000000000000, //24
11,
#BPMCHANGE 130.91
100000000000000000000000100000000000000000500000
#GOGOEND
#BPMCHANGE 129.7
#SCROLL 1.03
000000000000000000000000000000000008000000000000,
#BARLINEOFF
#MEASURE 4/4
#SCROLL 0.51
0, //27
#BARLINEON
#MEASURE 8/4
#BPMCHANGE 132.25
#SCROLL 0.5
22,
#BPMCHANGE 130.85
#SCROLL 1.02
#GOGOSTART
500000000000000000000000000000000000000000000008000000000000000000000000000000000000000000000000,
#BPMCHANGE 131.03
12,
#BPMCHANGE 131
1110, //31
600000000000000000000000000000000000000000000000000000000008000000000000000000000000000000000000,
#BPMCHANGE 131.01
600000000000000000000000000000000000000000000000000000000000000000000000000000000000000000000008,
#GOGOEND
#BPMCHANGE 129.19
#SCROLL 1.03
0
#SCROLL 0.52
0, //34
#BPMCHANGE 131.35
#SCROLL 0.51
2200,
#BPMCHANGE 129.35
#SCROLL 0.52
2200,
#BPMCHANGE 129.95
#SCROLL 0.51
1133,
#BPMCHANGE 133.37
#SCROLL 1
#GOGOSTART
600000000000000000000000000000000000000000000000000000000008000000000000000000000000000000000000, //38
#BPMCHANGE 130.6
#SCROLL 1.02
11,
#MEASURE 4/4
#BPMCHANGE 131.15
1011,
#GOGOEND
#BARLINEOFF
#MEASURE 8/4
#BPMCHANGE 143.13
#SCROLL 0.93
500000000000000000000000000000000000000000000000000000000000000000000000000000000000000000000008,
#MEASURE 4/4
#BPMCHANGE 107.11
#SCROLL 0.5
0, //42
#BARLINEON
#MEASURE 8/4
#BPMCHANGE 137.15
2
#BPMCHANGE 118.8
#SCROLL 0.58
2,
#BARLINEOFF
#MEASURE 6/4
#BPMCHANGE 95.23
#SCROLL 0.5
00
#BPMCHANGE 93
0007,
#BARLINEON
#MEASURE 8/4
000000000000000000080000000000000000000000000000, //45
#END
