//TJADB Project
TITLE:Strawberry☆Planet!
TITLEJA:ストロベリー☆プラネット!
SUBTITLE:--Strawberry Prince & NayutalieN
SUBTITLEJA:すとぷり / ナユタン星人
BPM:191
WAVE:Strawberry Planet!.ogg
OFFSET:-0.648
DEMOSTART:61.904

COURSE:Oni
LEVEL:6
BALLOON:14
SCOREINIT:2140
SCOREDIFF:0
#START
33,
30333000,
1212,
3334,
33,
30333000,
1211,
600000000000000000000000000000000008000000000000,
4444,
12121101,
02121020,
12112201,
02121010,
12121101,
02121020,
12112201,
02114040,
1112,
11010121,
01101122,
3334,
1112,
11010121,
01101122,
3330,
10201022,
11210121,
01221122,
33033020,
10201022,
11210121,
01221122,
3330,
10011021,
10211121,
10012021,
1112,
10211021,
10211122,
10011021,
11211020,
10211022,
10211020,
10221122,
11212022,
3344,
3344,
7,
8001,
#GOGOSTART
1000201110102000,
1000201110102000,
1000201110102020,
1214,
11201122,
11201120,
12221120,
3334,
1000201110102000,
1000201110102000,
1000201110102020,
1214,
500000000000000008000000100000000000400000000000,
500000000000000008000000100000000000400000100000,
1212,
30303330,
1000201011102000,
11214040,
1000201011102000,
11214040,
10211120,
10211120,
10216000,
000000000000000000000008000000000000000000000000,
1000201011102000,
11214040,
1000201011102000,
11214040,
10211120,
10211020,
100000000000200000100000500000000008000000000000,
40403330,
#GOGOEND
32121101,
02121020,
12112201,
02121010,
12121101,
02121020,
12112201,
02114040,
#END

COURSE:Hard
LEVEL:3
BALLOON:7,9
SCOREDIFF:0
#START
33,
33,
6,
000000000000000000000008000000000000000000000000,
33,
33,
6,
000000000000000000000008000000000000000000000000,
4444,
10101101,
01101000,
10101101,
01101000,
10101101,
01101000,
10101101,
01104040,
1110,
10010105,
000000000000000000000000000000000008000000000000,
3332,
1110,
10010105,
000000000000000000000000000000000008000000000000,
3330,
1110,
20020205,
000000000000000000000000000000000008000000000000,
7008,
1110,
20020205,
000000000000000000000000000000000008000000000000,
3330,
10011020,
10111020,
10011020,
1110,
10111020,
10111020,
10011020,
11102000,
10011020,
10011020,
10111020,
10111020,
3333,
3333,
9,
8,
#GOGOSTART
10110220,
10110220,
10110220,
1114,
10102011,
10201020,
11102220,
3334,
10110220,
10110220,
10110220,
1114,
10011040,
10011040,
6,
000000000000000000000008000000000000000000000000,
10211020,
1144,
10211020,
1144,
1122,
10211020,
10016000,
000000000000000000000008000000000000000000000000,
10211020,
1144,
10211020,
1144,
10211020,
1122,
10011000,
3333,
#GOGOEND
30101101,
01101000,
10101101,
01101000,
10101101,
01101000,
10101101,
01104040,
#END

COURSE:Normal
LEVEL:3
BALLOON:6,4,7
SCOREDIFF:0
#START
33,
33,
6,
000000000000000000000008000000000000000000000000,
33,
33,
6,
000000000000000000000008000000000000000000000000,
4444,
10001001,
00101000,
10001001,
00101000,
10001001,
00101000,
10001007,
0008,
1,
10010005,
000000000000000000000000000000000008000000000000,
3330,
1,
10010005,
000000000000000000000000000000000008000000000000,
3330,
2,
20020005,
000000000000000000000000000000000008000000000000,
7008,
2,
20020005,
000000000000000000000000000000000008000000000000,
3330,
10011000,
12,
10011000,
1110,
10011000,
12,
10011000,
1110,
10011000,
10011000,
12,
1110,
3330,
3330,
9,
8,
#GOGOSTART
10110010,
10110010,
10110010,
1120,
1110,
1110,
1212,
3330,
10110020,
10110020,
10110020,
1120,
500000000000000000000008000000000000400000000000,
500000000000000000000008000000000000400000000000,
6,
000000000000000000000008000000000000000000000000,
1212,
1130,
1212,
1130,
1122,
10111000,
10060000,
000000000000000000000008000000000000000000000000,
1212,
1130,
1212,
1130,
1122,
1122,
10011000,
3333,
#GOGOEND
30001001,
00101000,
10001001,
00101000,
10001001,
00101000,
10001001,
00104040,
#END

COURSE:Easy
LEVEL:3
BALLOON:5,4,6
SCOREDIFF:0
#START
33,
33,
6,
000000000000000000000008000000000000000000000000,
33,
33,
6,
000000000000000000000000000008000000000000000000,
3330,
10000001,
01,
10000001,
01,
10000001,
01,
10000007,
0008,
1,
10000001,
01,
3330,
1,
10000001,
01,
3330,
2,
20000001,
01,
7008,
2,
20000001,
01,
3330,
11,
1,
11,
1110,
11,
1,
11,
1110,
11,
1,
22,
2220,
3330,
3330,
9,
8,
#GOGOSTART
1001,
1001,
1001,
11,
11,
12,
11,
3330,
1001,
1001,
1001,
11,
500000000000000000000000000008000000000000000000,
500000000000000000000000000008000000000000000000,
6,
000000000000000000000008000000000000000000000000,
22,
1130,
22,
1130,
11,
1011,
6,
000000000000000000000008000000000000000000000000,
22,
1130,
22,
1130,
12,
1011,
12,
3330,
#GOGOEND
30000001,
01,
10000001,
01,
10000001,
01,
10000001,
0044,
#END
