//TJADB Project
TITLE:Misdeed -la bonté de Dieu et l’origine du mal-
TITLEJA:業 -善なる神とこの世の悪について-
SUBTITLE:--Takenobu Mitsuyoshi ℣ Daisuke Anayama/CHUNITHM
SUBTITLEJA:光吉猛修 VS 穴山大輔 「CHUNITHM」より
BPM:190
WAVE:Misdeed -la bonte de Dieu et lorigine du mal-.ogg
OFFSET:-0.269
DEMOSTART:121.465

COURSE:Edit
LEVEL:10
BALLOON:2,15,6,6,6,6,2,2,2,2,2,2
SCOREINIT:820
SCOREDIFF:0
#START
#MEASURE 1/8
#BARLINEOFF
11,
#MEASURE 4/4
1000
#BPMCHANGE 189
#SCROLL 1.00529100529
2010
#BPMCHANGE 185
#SCROLL 1.02702702703
2222
#BPMCHANGE 203
#SCROLL 0.93596059113
7080,
#GOGOSTART
#BARLINEON
#BPMCHANGE 190
#SCROLL 1.32
3013001040240020,
#SCROLL 1.4
3013001040024040,
#SCROLL 1.51
0021111400121114,
#SCROLL 1.62
1114000011140000,
#SCROLL 1.73
4114114114114114,
11411411
#GOGOEND
000000
#SCROLL 1.99
11,
#GOGOSTART
444444,
#SCROLL 2.64
404040404044444444444444,
#GOGOEND
#SCROLL 1
70000008,
#BPMCHANGE 190.5
#SCROLL 0.99737532808
2220222022202220,
#BPMCHANGE 190
#SCROLL 1
3010201000112001,
1011201012101210,
3010201000112001,
1011201121202120,
3010201000112001,
1011201012101210,
3010201000112001,
1011201121202120,
600000000000000000000000000000000000000008000000,
70087008,
#SCROLL 0.75
202020200200200020002000020000020000002000000200,
#GOGOSTART
#SCROLL 1.33
500000008000000100200100500000008000000100200100,
500000008000000100200100200100100200100100200100,
500000008000000100200100500000008000000100200100,
1334,
500000008000000100200200500000008000000100200200,
500000008000000100200200100100200100100200100200,
500000008000000100200200500000008000000100200200,
1334,
#GOGOEND
2444,
#SCROLL 0.75
20202010101020202011111020202000,
#SCROLL 1
3010201000112001,
1011201012101210,
3010201000112001,
1011201121202120,
3010201021112211,
2111201012101210,
3010201021112211,
2111221121202120,
600000000000000000000000000000000000000008000000,
70087008,
#SCROLL 0.75
100100100100200200200200101010101000202020202000,
#GOGOSTART
#SCROLL 1.33
500008000000200000700000800000000000100100200200,
500008000000100000700000800000000000200200100100,
500008000000200000700000800000000000100100200200,
500008000000100000400000100200200100200200100200,
100000508000000000700000800000000000200100100200,
100000508000000000700000800000100000200200100200,
100000508000000000700000800000000000200100100200,
100000508000000000300000200200100200200100200200,
1030001211211211,
411
#BPMCHANGE 170
411
#BPMCHANGE 150
411
#BPMCHANGE 140
411,
#GOGOEND
#BPMCHANGE 119.25
#SCROLL 1.25786163522
000000000000
#BPMCHANGE 121.5
#SCROLL 1.23456790123
2222,
#BPMCHANGE 129.5
#SCROLL 1.1583011583
11101000222010201110111022201020,
1121121122122122,
#BPMCHANGE 140.8
#SCROLL 1.06534090909
101010000000101010102020100000202020101010200200,
100000101010200200200200100100200200100200200200,
#BPMCHANGE 149.95
#SCROLL 1.00033344448
10102010221122112020101020101010,
11111111202020201010201020201020,
100000100000100010001000100020001000220000001010,
200000100100200010002000101010101010200200100100,
#BPMCHANGE 160
#SCROLL 0.9375
202020202020100100200200101010101010200200100100,
#BPMCHANGE 170
#SCROLL 0.88235294117
200200200200101010101010200200100100200200100200,
#BPMCHANGE 181
#SCROLL 0.82872928176
1121121221221122,
#BPMCHANGE 189
#SCROLL 0.79365079365
200000200200200200000200000010000000000020000000000000200000100000200000000000200000200000200000,
#BPMCHANGE 189.5
#SCROLL 1.00263852243
500008000000200000000000100000200000100200000200,
#BPMCHANGE 190.5
#SCROLL 0.99737532808
500008000000200000100000200100200100200200000200,
#BPMCHANGE 190
#SCROLL 1
500008000000200000000000100200200200100200100200,
100000200000200200222200,
500008000000200000000000100000200000100200000200,
500008000000200000100000200100200100200200000200,
500008000000200000000000100200200200100200100200,
100000200000200200222222,
#BPMCHANGE 189.5
#SCROLL 1.00263852243
100000200000100200111200,
#BPMCHANGE 190
#SCROLL 1
0000201021212222,
100000200000100200111200,
000000200000111020102200,
#SCROLL 0.75
111110222220121210212120,
#GOGOSTART
#SCROLL 1.5
300000000000000000600000000008000000200200100100,
400000000000000000600000000008000000100100200200,
300000000000000000600000000008000000200100100100,
4000004012221122,
3003004040041221,
4004001140041122,
3003004040112211,
4000400011112222,
#GOGOEND
#SCROLL 1
1010001122112111,
#BPMCHANGE 190.5
#SCROLL 0.99737532808
2011201011212121,
#BPMCHANGE 190
#SCROLL 1
2020001122112112,
2012201022222222,
#MEASURE 8/4
#BPMCHANGE 380
#SCROLL 2
600000000000000000000000000000000008000000000000,
#GOGOSTART
#MEASURE 4/4
#BPMCHANGE 190
#SCROLL 1.5
3112221122211122,
3112211122211222,
3021401211222111,
4211422212212212,
30002030002030001111111120202020,
30202030202030001111111120201010,
200300000300000300000400100040004000100040004000,
#GOGOEND
#MEASURE 8/4
#BPMCHANGE 380
#SCROLL 0.75
12020112020112020112020112020110,
#GOGOSTART
#MEASURE 4/4
#BPMCHANGE 190
#SCROLL 1.5
4211421142221111,
400200100100400200100100400200200200600000008000,
3030203040203131,
2030422030114022,
3030223040224040,
#GOGOEND
#MEASURE 2/4
10101122,
#GOGOSTART
#MEASURE 4/4
3030223040203131,
2231422230114022,
3031223040224031,
#MEASURE 2/4
10424210,
#GOGOEND
#MEASURE 4/4
222222111111222111222111,
#GOGOSTART
#MEASURE 6/4
#SCROLL 2
400000000000000000000000
#BPMCHANGE 380
#SCROLL 0.5
600000008000
#SCROLL 0.52
600000008000
#SCROLL 0.53
600000008000
#SCROLL 0.55
600000008000,
#MEASURE 8/4
#SCROLL 0.57
600000008000
#SCROLL 0.59
600000008000
#SCROLL 0.64
600000008000
#SCROLL 0.63
600000008000
#SCROLL 0.65
600000008000
#SCROLL 0.67
600000008000
#SCROLL 0.69
600000008000
#SCROLL 0.72
600000008000,
#SCROLL 0.74
0403
#SCROLL 0.77
0403
#SCROLL 0.79
0403
#SCROLL 0.82
0403
#SCROLL 0.84
0403
#SCROLL 0.87
0403
#SCROLL 0.9
0403
#SCROLL 0.93
0403,
#SCROLL 0.96
0403
#SCROLL 0.99
0403
#SCROLL 1.03
0403
#SCROLL 1.06
0403
#SCROLL 1.1
0403
#SCROLL 1.13
0403
#BPMCHANGE 360
#SCROLL 1.235
0403
#SCROLL 1.27722222222
0400,
#GOGOEND
#MEASURE 4/4
#BPMCHANGE 190
#SCROLL 1.25
3,
#SCROLL 4
6,
000000000000000000000000000000000008000000000000,
#GOGOSTART
#MEASURE 3/4
#BPMCHANGE 50
#SCROLL 1.33
3,
#GOGOEND
#END

COURSE:Oni
LEVEL:9
BALLOON:12,12,5,12,13,30
SCOREINIT:1120
SCOREDIFF:0
#START
#BARLINEOFF
#MEASURE 1/8
,
#MEASURE 4/4
0
#BPMCHANGE 189
#SCROLL 1.00529100529
0
#BPMCHANGE 185
#SCROLL 1.02702702703
0
#BPMCHANGE 203
#SCROLL 0.93596059113
0,
#GOGOSTART
#BARLINEON
#BPMCHANGE 190
#SCROLL 1
3003000040040000,
3003003040040040,
0001111100022222,
0012000010120000,
3003003003003003,
00300300
#GOGOEND
00000000,
#GOGOSTART
444444,
200020002000200020002000200200200200200200200200,
#GOGOEND
,
#BPMCHANGE 190.5
#SCROLL 0.99737532808
2200220022002200,
#BPMCHANGE 190
#SCROLL 1
3030003000102001,
1011200030203020,
3030003000102001,
1011200030101110,
3030003000102001,
1011200030203020,
3030003000102001,
1011200030101110,
600000000000000000000000000000000000000008000000,
500000000000000008000000500000000000000008000000,
7008,
#GOGOSTART
3003022030030220,
3003022012121210,
3003022030030220,
3444,
3004012030040120,
3004012012121210,
3004012030040121,
2444,
#GOGOEND
2222,
2220222022222020,
3030003000102001,
1011200030203020,
3030003000102001,
1011200030101110,
3030003011112011,
1011200030203020,
3030003011112011,
1111201030101110,
600000000000000000000000000000000000000008000000,
500000000000000008000000500000000000000008000000,
7008,
#GOGOSTART
3000104000101210,
4000104000102120,
3000104000101210,
4000104011221120,
3030004000101210,
3030004000402120,
3030004000201210,
4040004021212120,
3030001122111000,
4
#BPMCHANGE 170
#SCROLL 1.11764705882
4
#BPMCHANGE 150
#SCROLL 1.26666666667
4
#BPMCHANGE 140
#SCROLL 1.35714285714
4,
#GOGOEND
#BPMCHANGE 119.25
#SCROLL 1.59329140461
000
#BPMCHANGE 121.5
#SCROLL 1.56378600823
0,
#BPMCHANGE 129.5
#SCROLL 1.46718146718
1000101120002022,
1001101020102220,
#BPMCHANGE 140.8
#SCROLL 1.34943181818
1000101120002022,
1001101020102222,
#BPMCHANGE 149.95
#SCROLL 1.26708902968
1000101120002022,
1001201020102220,
100000000000100010001000200000000000200000200200,
1001201021112000,
#BPMCHANGE 160
#SCROLL 1.1875
3000111020001040,
#BPMCHANGE 170
#SCROLL 1.11764705882
0020111020100040,
#BPMCHANGE 181
#SCROLL 1.04972375691
0020111120101040,
#BPMCHANGE 189
#SCROLL 1.00529100529
2222102070000080,
#BPMCHANGE 189.5
#SCROLL 1.00263852243
3000200010201121,
#BPMCHANGE 190.5
#SCROLL 0.99737532808
1000200011221212,
#BPMCHANGE 190
#SCROLL 1
1000200010201121,
1000200020202220,
1000200010201121,
1000200011221212,
1000200010201121,
1000200020202220,
#BPMCHANGE 189.5
#SCROLL 1.00263852243
500000000000000000000000000000000008000000500000,
#BPMCHANGE 190
#SCROLL 1
000000000000000008000000100000200100200100200000,
500000000000000000000000000000000008000000500000,
000000000000000008000000100000002000100020000000,
7008,
#GOGOSTART
3000003000001110,
4000004000002220,
3000003000001210,
4000004011221120,
3003004040011210,
4004002220021120,
3003004040112211,
2000400022112222,
#GOGOEND
1010001122111011,
#BPMCHANGE 190.5
#SCROLL 0.99737532808
2011200012222222,
#BPMCHANGE 190
#SCROLL 1
1010001122221012,
2012200022222222,
#MEASURE 8/4
#BPMCHANGE 380
#SCROLL 0.5
7008,
#GOGOSTART
#MEASURE 4/4
#BPMCHANGE 190
#SCROLL 1
1110201120112110,
2212201022122210,
1011201121102210,
2112201021122210,
2012012021112120,
2102102021211120,
200100200100200100200100200020002000200020002000,
#GOGOEND
#MEASURE 8/4
#BPMCHANGE 380
#SCROLL 0.5
20000202000202000202000202000200,
#GOGOSTART
#MEASURE 4/4
#BPMCHANGE 190
#SCROLL 1
3021202121212021,
2120212021212000,
3030112040103030,
2110401030104020,
3030211040112040,
#GOGOEND
#MEASURE 2/4
10102220,
#GOGOSTART
#MEASURE 4/4
3030221040102121,
2211221040104020,
3030211040104040,
#MEASURE 2/4
11204011,
#GOGOEND
#MEASURE 4/4
2221112221112220,
#GOGOSTART
#MEASURE 6/4
30000000
#BPMCHANGE 380
#SCROLL 0.5
0300030003000300,
#MEASURE 8/4
03000300030003000300030003000300,
01010101010101010101010101010101,
010101010101010101010101
#BPMCHANGE 360
#SCROLL 0.52777777777
01010100,
#GOGOEND
#MEASURE 4/4
#BPMCHANGE 190
#SCROLL 1
3,
7,
0008,
#GOGOSTART
#MEASURE 3/4
#BPMCHANGE 50
#SCROLL 3.8
3,
#GOGOEND
#END

COURSE:Hard
LEVEL:7
BALLOON:9,9,9,9,37
SCOREINIT:2070
SCOREDIFF:0
#START
#BARLINEOFF
#MEASURE 1/8
,
#MEASURE 4/4
0
#BPMCHANGE 189
#SCROLL 1.00529100529
0
#BPMCHANGE 185
#SCROLL 1.02702702703
0
#BPMCHANGE 203
#SCROLL 0.93596059113
0,
#GOGOSTART
#BARLINEON
#BPMCHANGE 190
#SCROLL 1
3003000040040000,
3003003040040040,
0001111000022220,
0003000000040000,
3003003003003003,
00300300
#GOGOEND
00000000,
#GOGOSTART
444444,
600000000000000000000000000000000000000000000008,
#GOGOEND
,
#BPMCHANGE 190.5
#SCROLL 0.99737532808
2222,
#BPMCHANGE 190
#SCROLL 1
11010020,
00201212,
11010020,
0230,
11010020,
00201212,
11010020,
0230,
600000000000000000000000000000000000000008000000,
500000000000000008000000500000000000000008000000,
7008,
#GOGOSTART
3003000030030000,
3003000022202000,
3003000030030000,
3444,
3003000030030000,
3003000022202000,
3003000030030000,
3444,
#GOGOEND
2222,
00002220,
11010020,
00201212,
11010020,
0230,
11010020,
00201212,
11010020,
0230,
600000000000000000000000000000000000000008000000,
500000000000000008000000500000000000000008000000,
7008,
#GOGOSTART
30030010,
40040020,
30030010,
40040020,
33030010,
44040400,
33030010,
44040000,
3030000011101000,
4
#BPMCHANGE 170
#SCROLL 1.11764705882
4
#BPMCHANGE 150
#SCROLL 1.26666666667
4
#BPMCHANGE 140
#SCROLL 1.35714285714
4,
#GOGOEND
#BPMCHANGE 119.25
#SCROLL 1.59329140461
000
#BPMCHANGE 121.5
#SCROLL 1.56378600823
0,
#BPMCHANGE 129.5
#SCROLL 1.46718146718
10112022,
1000100020202220,
#BPMCHANGE 140.8
#SCROLL 1.34943181818
10112022,
1000100020202220,
#BPMCHANGE 149.95
#SCROLL 1.26708902968
10112022,
1010100020202220,
10112022,
1010100022202000,
#BPMCHANGE 160
#SCROLL 1.1875
30102014,
#BPMCHANGE 170
#SCROLL 1.11764705882
00102104,
#BPMCHANGE 181
#SCROLL 1.04972375691
0000111020001040,
#BPMCHANGE 189
#SCROLL 1.00529100529
,
#BPMCHANGE 189.5
#SCROLL 1.00263852243
30201110,
#BPMCHANGE 190.5
#SCROLL 0.99737532808
1000200010101110,
#BPMCHANGE 190
#SCROLL 1
10201110,
1120,
30201110,
1000200010101110,
10201110,
1120,
#BPMCHANGE 189.5
#SCROLL 1.00263852243
500000000000000000000000000000000008000000500000,
#BPMCHANGE 190
#SCROLL 1
000000000000000008000000200000200200200000000000,
500000000000000000000000000000000008000000500000,
000000000000000008000000200000002000200020000000,
7008,
#GOGOSTART
30030010,
40040020,
30030010,
4000004022202000,
3003003030030000,
4004004040002000,
3003003030111000,
4000400022202000,
#GOGOEND
1010000022202000,
#BPMCHANGE 190.5
#SCROLL 0.99737532808
1000100020222000,
#BPMCHANGE 190
#SCROLL 1
1010000022202000,
1000100020222000,
#MEASURE 8/4
#BPMCHANGE 380
#SCROLL 0.5
600000000000000000000000000000000008000000000000,
#GOGOSTART
#MEASURE 4/4
#BPMCHANGE 190
#SCROLL 1
1110101020202000,
1110101020202000,
1011101020202000,
1011101020202000,
3003003022202000,
3003003022202000,
400400400400202020202020,
#GOGOEND
#MEASURE 8/4
#BPMCHANGE 380
#SCROLL 0.5
7008,
#GOGOSTART
#MEASURE 4/4
#BPMCHANGE 190
#SCROLL 1
2022202220202000,
2220222020202000,
3030111000003030,
1110000030004000,
3030111000003030,
#GOGOEND
#MEASURE 2/4
,
#GOGOSTART
#MEASURE 4/4
3030222000003030,
2220000030004000,
3030111040003030,
#MEASURE 2/4
11104000,
#GOGOEND
#MEASURE 4/4
600000000000000000000000000000000008000000000000,
#GOGOSTART
#MEASURE 6/4
9
#BPMCHANGE 380
#SCROLL 0.5
00,
#MEASURE 8/4
,
,
000
#BPMCHANGE 360
#SCROLL 0.52777777777
8,
#GOGOEND
#MEASURE 4/4
#BPMCHANGE 190
#SCROLL 1
3,
,
,
#GOGOSTART
#MEASURE 3/4
#BPMCHANGE 50
#SCROLL 3.8
3,
#GOGOEND
#END

COURSE:Normal
LEVEL:6
BALLOON:11,15,5,5,8,5,5,22
SCOREINIT:3140
SCOREDIFF:0
#START
#MEASURE 1/8
#BARLINEOFF
,
#MEASURE 4/4
0
#BPMCHANGE 189
#SCROLL 1.00529100529
0
#BPMCHANGE 185
#SCROLL 1.02702702703
0
#BPMCHANGE 203
#SCROLL 0.93596059113
0,
#GOGOSTART
#BARLINEON
#BPMCHANGE 190
#SCROLL 1
3003000030030000,
4004000040040000,
0003000000030000,
0004000000040000,
7,
0
#GOGOEND
8,
#GOGOSTART
9,
,
#GOGOEND
8,
#BPMCHANGE 190.5
#SCROLL 0.99737532808
,
#BPMCHANGE 190
#SCROLL 1
11020000,
00001120,
11020000,
02,
11020000,
00001120,
11020000,
02,
3,
44,
7008,
#GOGOSTART
3003000030030000,
3003000020202000,
3003000030030000,
3444,
3003000030030000,
3003000020202000,
3003000030030000,
3444,
#GOGOEND
2222,
,
11020000,
00001120,
11020000,
02,
11020000,
00001120,
11020000,
02,
3,
44,
7008,
#GOGOSTART
30030000,
40040000,
30030000,
40040000,
11010000,
22020200,
11010000,
22020000,
33002220,
7
#BPMCHANGE 170
#SCROLL 1.11764705882
0
#BPMCHANGE 150
#SCROLL 1.26666666667
0
#BPMCHANGE 140
#SCROLL 1.35714285714
0,
#GOGOEND
#BPMCHANGE 119.25
#SCROLL 1.59329140461
800
#BPMCHANGE 121.5
#SCROLL 1.56378600823
0,
#BPMCHANGE 129.5
#SCROLL 1.46718146718
1120,
10102220,
#BPMCHANGE 140.8
#SCROLL 1.34943181818
1120,
10102220,
#BPMCHANGE 149.95
#SCROLL 1.26708902968
1120,
11102220,
1120,
11102220,
#BPMCHANGE 160
#SCROLL 1.1875
30102004,
#BPMCHANGE 170
#SCROLL 1.11764705882
00102004,
#BPMCHANGE 181
#SCROLL 1.04972375691
00112004,
#BPMCHANGE 189
#SCROLL 1.00529100529
,
#BPMCHANGE 189.5
#SCROLL 1.00263852243
30001110,
#BPMCHANGE 190.5
#SCROLL 0.99737532808
10001111,
#BPMCHANGE 190
#SCROLL 1
10001110,
12,
30001110,
10001111,
10001110,
12,
#BPMCHANGE 189.5
#SCROLL 1.00263852243
30000003,
#BPMCHANGE 190
#SCROLL 1
00002220,
30000003,
000222,
7008,
#GOGOSTART
30030000,
40040000,
30030000,
40040000,
3003000030000000,
4004000040000000,
3003000030000000,
4400,
#GOGOEND
11002020,
#BPMCHANGE 190.5
#SCROLL 0.99737532808
10102220,
#BPMCHANGE 190
#SCROLL 1
11002020,
10102220,
#MEASURE 8/4
#BPMCHANGE 380
#SCROLL 0.5
600000000000000000000000000000000008000000000000,
#GOGOSTART
#BPMCHANGE 190
#MEASURE 4/4
#SCROLL 1
10111110,
20222220,
10111110,
20222220,
3003000020202000,
3003000020202000,
400000000400000000000000200020000000200020000000,
#GOGOEND
#MEASURE 8/4
#BPMCHANGE 380
#SCROLL 0.5
7008,
#GOGOSTART
#MEASURE 4/4
#BPMCHANGE 190
#SCROLL 1
6,
000000000000000000000000000000000008000000000000,
33040033,
04003040,
33040033,
#GOGOEND
#MEASURE 2/4
,
#GOGOSTART
#MEASURE 4/4
33040033,
04003040,
33044033,
#MEASURE 2/4
0440,
#GOGOEND
#MEASURE 4/4
600000000000000000000000000000000008000000000000,
#GOGOSTART
#MEASURE 6/4
9
#BPMCHANGE 380
#SCROLL 0.5
00,
#MEASURE 8/4
,
,
000
#BPMCHANGE 360
#SCROLL 0.52777777777
8,
#GOGOEND
#MEASURE 4/4
#BPMCHANGE 190
#SCROLL 1
3,
,
,
#GOGOSTART
#MEASURE 3/4
#BPMCHANGE 50
#SCROLL 3.8
3,
#GOGOEND
#END

COURSE:Easy
LEVEL:5
BALLOON:10,13,4,4,7,4,4,18
SCOREINIT:4050
SCOREDIFF:0
#START
#MEASURE 1/8
#BARLINEOFF
,
#MEASURE 4/4
0
#BPMCHANGE 189
#SCROLL 1.00529100529
0
#BPMCHANGE 185
#SCROLL 1.02702702703
0
#BPMCHANGE 203
#SCROLL 0.93596059113
0,
#GOGOSTART
#BARLINEON
#BPMCHANGE 190
#SCROLL 1
33,
44,
0003000000030000,
0004000000040000,
7,
0
#GOGOEND
8,
#GOGOSTART
9,
,
#GOGOEND
8,
#BPMCHANGE 190.5
#SCROLL 0.99737532808
,
#BPMCHANGE 190
#SCROLL 1
11010000,
0022,
11010000,
02,
11010000,
0022,
11010000,
02,
3,
33,
7008,
#GOGOSTART
33,
3011,
33,
3444,
33,
3011,
33,
3444,
#GOGOEND
2222,
,
11010000,
0022,
11010000,
02,
11010000,
0022,
11010000,
02,
3,
33,
7008,
#GOGOSTART
30030000,
40040000,
30030000,
40040000,
11010000,
22020000,
11010000,
22020000,
33001010,
7
#BPMCHANGE 170
#SCROLL 1.11764705882
0
#BPMCHANGE 150
#SCROLL 1.26666666667
0
#BPMCHANGE 140
#SCROLL 1.35714285714
0,
#GOGOEND
#BPMCHANGE 119.25
#SCROLL 1.59329140461
800
#BPMCHANGE 121.5
#SCROLL 1.56378600823
0,
#BPMCHANGE 129.5
#SCROLL 1.46718146718
12,
1111,
#BPMCHANGE 140.8
#SCROLL 1.34943181818
12,
1111,
#BPMCHANGE 149.95
#SCROLL 1.26708902968
12,
1111,
12,
1111,
#BPMCHANGE 160
#SCROLL 1.1875
10002003,
#BPMCHANGE 170
#SCROLL 1.11764705882
00002003,
#BPMCHANGE 181
#SCROLL 1.04972375691
00002003,
#BPMCHANGE 189
#SCROLL 1.00529100529
,
#BPMCHANGE 189.5
#SCROLL 1.00263852243
3011,
#BPMCHANGE 190.5
#SCROLL 0.99737532808
1011,
#BPMCHANGE 190
#SCROLL 1
1011,
12,
3011,
1011,
1011,
12,
#BPMCHANGE 189.5
#SCROLL 1.00263852243
30000003,
#BPMCHANGE 190
#SCROLL 1
02,
30000003,
02,
7008,
#GOGOSTART
30030000,
40040000,
30030000,
40040000,
3003000030000000,
4004000040000000,
3003000030000000,
3400,
#GOGOEND
11002000,
#BPMCHANGE 190.5
#SCROLL 0.99737532808
1120,
#BPMCHANGE 190
#SCROLL 1
11002000,
1122,
#MEASURE 8/4
#BPMCHANGE 380
#SCROLL 0.5
600000000000000000000000000000000008000000000000,
#GOGOSTART
#MEASURE 4/4
#BPMCHANGE 190
#SCROLL 1
10111000,
2220,
10111000,
2220,
3022,
3022,
3022,
#GOGOEND
#MEASURE 8/4
#BPMCHANGE 380
#SCROLL 0.5
7008,
#GOGOSTART
#MEASURE 4/4
#BPMCHANGE 190
#SCROLL 1
6,
000000000000000000000000000000000008000000000000,
33030033,
03004040,
33030033,
#GOGOEND
#MEASURE 2/4
,
#GOGOSTART
#MEASURE 4/4
33030033,
03004040,
33033033,
#MEASURE 2/4
0330,
#GOGOEND
#MEASURE 4/4
600000000000000000000000000000000008000000000000,
#GOGOSTART
#MEASURE 6/4
9
#BPMCHANGE 380
#SCROLL 0.5
00,
#MEASURE 8/4
,
,
000
#BPMCHANGE 360
#SCROLL 0.52777777777
8,
#GOGOEND
#MEASURE 4/4
#BPMCHANGE 190
#SCROLL 1
3,
,
,
#GOGOSTART
#MEASURE 3/4
#BPMCHANGE 50
#SCROLL 3.8
3,
#GOGOEND
#END
