//TJADB Project
TITLE:Kissa Rain
TITLEJA:喫茶レイン
SUBTITLE:--Hiromi Shibano
BPM:108
WAVE:Kissa Rain.ogg
OFFSET:-2.332
DEMOSTART:20.102

COURSE:Edit
LEVEL:8
SCOREINIT:1500
SCOREDIFF:0
#START
1011220100200001,
1011220120102010,
1011220100201021,
1011220010002000,
1011220100200001,
1011220120102010,
1011220100201021,
100000100000000200000000200000000500000000008000,
1011221100102020,
1101221010112202,
0211221011120250,
000000000000000008000000300000000000200000000000,
1011221100102020,
1101221010111201,
0210220211120212,
2110210030102100,
1011221100102020,
1101221010112012,
0211221011120250,
000000000000000008000000300000000000200000200000,
1011221100102020,
1101221010111201,
0211220211120212,
2110210030222020,
#GOGOSTART
1021221020122110,
1210201120201110,
2012201120111020,
100000100100202020100100202020100100202020100100,
1021221020122110,
1210201120201110,
2012201120111020,
100000100200202020100200202020100200202020100200,
#GOGOEND
1011221100102020,
1101221010112202,
0211221011120250,
000000000000000008000000300000000000200000000000,
1011221100102020,
1101221010111201,
0211220211120212,
2110210030102100,
1011221100102020,
1101221010112202,
0211221011120250,
000000000000000008000000300000000000200000000000,
1011221100102020,
1101221010111201,
0211220211120212,
2110210030222020,
#GOGOSTART
1021221020122110,
1210201120201110,
2012201120111020,
100000100100202020100100202020100100202020100100,
1021221020122110,
1210201120201110,
2012201120111020,
100000100200202020100200202020100200202020100200,
#GOGOEND
1022200110222012,
1022200110002000,
1022200110222012,
100000200200200000000100500000000000000008000000,
#SCROLL 1.33
3000200110102022,
1010201110102022,
1010201110102022,
1221222130000000,
#END

COURSE:Oni
LEVEL:6
SCOREINIT:650
SCOREDIFF:178
#START
0202,
0000200110002000,
0202,
0202,
1000200110002000,
1000200110002000,
1000200110002000,
1020020020020000,
1000200110002000,
1000200110102000,
1000200110002000,
1210,
1000200110102000,
1000200110102010,
1000200110102000,
1210,
1000200110102010,
1010200110102010,
1000200110102010,
1210,
1010200110102010,
1010201110102011,
1010200110102010,
1210,
#GOGOSTART
1001201120112010,
1001201120112010,
1001201120112010,
1021202120212011,
1001201120112010,
1001201120112010,
1001201120112010,
1021202120212021,
#GOGOEND
1000200110002000,
1000200110102000,
1000200110002000,
1210,
1000200110102000,
1000200110102010,
1000200110102000,
1210,
1000200110102010,
1010200110102010,
1000200110102010,
1210,
1010200110102010,
1010201110102011,
1010200110102010,
1210,
#GOGOSTART
2001201120112101,
2001201120112101,
2001201120112101,
2001201120112100,
1001201120112101,
2001201120112101,
2001201120112101,
1001201120112101,
#GOGOEND
1000200110002000,
1000200110002000,
1000200110002000,
100000000000200000000000500000000000000008000000,
30403343,
30403343,
30403343,
1222122110000000,
#END

COURSE:Hard
LEVEL:5
SCOREINIT:690
SCOREDIFF:200
#START
1000200110002000,
1212,
1000200110002000,
1200,
1000200110002000,
1212,
1000200110002000,
1200,
1000200110102000,
1212,
1000200110102000,
1210,
1000200110102000,
1000200110002000,
1000200110102000,
1210,
1000200110102010,
1000200110002000,
1000200110102010,
1220,
1000200110102010,
1000200110002000,
1000200110102010,
1200,
#GOGOSTART
1001101120002000,
1000200110002000,
1001101120002000,
1000200110000000,
1001101120002000,
1000200110002000,
1001101120002000,
1000200110000000,
#GOGOEND
1000200110102000,
1212,
1000200110102000,
1210,
1000200110102000,
1000200110002000,
1000200110102000,
1210,
1000200110102010,
1000200110002000,
1000200110102010,
1220,
1000200110102010,
1000200110002000,
1000200110102010,
1200,
#GOGOSTART
1001201120002010,
1000200120002000,
1001201120002010,
1000200120000000,
1001201120002010,
1000200120002000,
1001201120002010,
1000200120002000,
#GOGOEND
1000200110002000,
1000200110002000,
1000200110002000,
1000200110002000,
1010200110102000,
1010200110102010,
1010200110102000,
2220222030000000,
#END

COURSE:Normal
LEVEL:6
SCOREINIT:590
SCOREDIFF:190
#START
0202,
0202,
0202,
0200,
0202,
0202,
0202,
0200,
10201100,
1212,
10201100,
1210,
10201100,
1212,
10201100,
1210,
10201120,
1210,
10201120,
1220,
10201120,
1212,
10201120,
1200,
#GOGOSTART
3333,
30201120,
3333,
30202120,
3333,
30201120,
3333,
30202120,
#GOGOEND
10201100,
1212,
10201100,
1210,
10201100,
1212,
10201100,
1210,
10201120,
1210,
10201120,
1220,
10201120,
1212,
10201120,
1200,
#GOGOSTART
3434,
30201120,
3434,
30202120,
3434,
30201120,
3434,
30202120,
#GOGOEND
0000200110002000,
0000200110002000,
0000200110002000,
0000200110002000,
1000200110002000,
1000200110102000,
1000200110002000,
1130,
#END

COURSE:Easy
LEVEL:4
SCOREINIT:520
SCOREDIFF:198
#START
0202,
0202,
0202,
0200,
0202,
0202,
0202,
0200,
1200,
1200,
1200,
1210,
1200,
1200,
1200,
1210,
1210,
1210,
1210,
1220,
1212,
1202,
1212,
1200,
#GOGOSTART
3333,
3,
3333,
3,
3333,
3,
3333,
3,
#GOGOEND
1200,
1200,
1200,
1210,
1200,
1200,
1200,
1210,
1210,
1210,
1210,
1220,
1212,
1202,
1212,
1200,
#GOGOSTART
3434,
3,
3434,
3,
3434,
3,
3434,
3,
#GOGOEND
0202,
0202,
0202,
0202,
1212,
1022,
1212,
1130,
#END
