//TJADB Project
TITLE:Streamer
TITLEJA:Streamer
SUBTITLE:--Strawberry Prince/Furu Furu Fruits
SUBTITLEJA:すとぷり/ツイキャス「ふるふるふるーつキャンペーン」キャンペーンソング
BPM:126
WAVE:Streamer.ogg
OFFSET:-1.946
DEMOSTART:72.402

COURSE:Oni
LEVEL:7
BALLOON:55,2
SCOREINIT:2290
SCOREDIFF:0
#START
7,
,
,
800000000000000000100100200000200000100000100000,
#GOGOSTART
100000000000100000000000100000100100200000100000,
200000100000200000100200000200100000200000100000,
100100100000200000100100200200000100100000200000,
100100100000100100000000300000000000300000000000,
100000000000100000000000100000100100200000100000,
200000100000200000100200000200100000200000100000,
100000100000100100100100100000100000400000000000,
100100100000100100100000100000100000400000000000,
#GOGOEND
500000000000000000000000000000000008000000100100,
100000100100000100000100100100100000200000000000,
100000100100200200000100100000200000100000000000,
100000200200200000000200200000200000000200000200,
100200100200100000200000100200100200100000200000,
100000100000200000000100100000100100000000200000,
100000000100100000000100100000100100000000100100,
100000200000200000100100100000100000100100100100,
100000100000100100200200100000100000700000800000,
100000100000200000000100100000100000100100100000,
100200100200100000200000100200100200100000200000,
100100100000100000100000100100100000100000100100,
100000200000100000200000100100100000300000000000,
100100100000200200200000100100100000200200200000,
100100100100100100100000200200200200200200200000,
300000300000300000300000400000400000400000000000,
100100000100100000400000100100100000400000000000,
200000200200000000200000200200000000200000200200,
000200200000200200000200200000200000200000200000,
100000100100000000100000100100000000100000100100,
000000100000100100000100100000100000100000100000,
100000200000200200000200200000200000100000200000,
100000000000100000000100100000100000200000100000,
600000000000000000000000000000000000000008000000,
000000200200200000200000200000000000200000200000,
#GOGOSTART
100000000000100000000000100000100100200000100000,
200000100000200000100200000200100000200000100000,
100100100000200000100100200200000100100000200000,
100100100000100100000000300000000000300000000000,
100000000000100000000000100000100100200000100000,
200000100000200000100200000200100000200000100000,
100000100000100100100100100000100000200100000100,
100000100000100100100000100000100000100000000000,
100000000000100000000000100000100100200000100000,
200000100000200000100200000200100000200000100000,
100100100000100100000100100000100000400000200200,
100100100000100100000100100000100000400000100000,
100000000000100000000000100000100100200000100000,
200000100000200000100200000200100000200000100000,
100100100000100100000100100000100000400000100100,
100000100100000100000100100000100000400000000000,
#GOGOEND
#END

COURSE:Hard
LEVEL:5
BALLOON:45,13,14
SCOREDIFF:0
#START
9,
,
,
8,
#GOGOSTART
100000000000100000000000100000100100000000100000,
100000000000100000100100000000000000200000000000,
100100100000100000000000200000000000200000000000,
100100100000100000000000300000000000300000000000,
100000000000100000000000100000100100000000100000,
100000000000100000100100000000000000200000000000,
100000100000100000000000100000100000400000000000,
100000100000100000000000100000100000400000000000,
#GOGOEND
000000000000000000000000000000000000000000000000,
100000000000100000000000100000100000200000000000,
100000000000100000000000100000200000100000000000,
100000100000200000000000200000200000000200200000,
500000000000000000000000000000000000000008000000,
100000000000100000000000100000100100000000100000,
100000000000100000000000100000100100000000100000,
100000100000100000000000100000100000200000200000,
500000000000000000000000000000000008000000000000,
100000100000000000000000100000100000200000000000,
100000100000200000100000100000100100100000000000,
100000100000200000100000100000100000200000100000,
100000100000200000100000100000100000300000000000,
100000100000200000000000100000100000200000000000,
100000100000100000000000200000200000200000000000,
300000000000300000000000400000000000400000000000,
700000000000000000000000000000000000000000800000,
200000000200000000200000000000000000200000000200,
000000200000000000000000200000000000200000000000,
100000000100000000100000000000000000100000000100,
000000100000000000000000100000000000100000000000,
100000000000100000000200200000200000200000000000,
100000000000100000000100100000100000100000000000,
9,
8,
#GOGOSTART
100000000000100000000000100000100100000000100000,
100000000000100000100100000000000000200000000000,
100100100000100000000000200000000000200000000000,
100100100000100000000000300000000000300000000000,
100000000000100000000000100000100100000000100000,
100000000000100000100100000000000000200000000000,
100000100000100000000000200000200000000000000000,
100000100000100000000000200000200000200000000000,
100000000000100000000000100000100100000000100000,
100000000000100000100100000000000000200000000000,
100000100000100000000000100000100000400000000000,
100000100000100000000000100000100000400000000000,
100000000000100000000000100000100100000000100000,
100000000000100000100100000000000000200000000000,
100100100000100000000000100000100000400000000000,
100000100100000100000000100000100000400000000000,
#GOGOEND
#END

COURSE:Normal
LEVEL:3
BALLOON:30,9,10,8
SCOREDIFF:0
#START
9,
,
,
8,
#GOGOSTART
100000000000100000000000100000000000000000100000,
100000000000100000000000000000000000200000000000,
100000000000100000000000200000000000200000000000,
100000000000100000000000300000000000300000000000,
100000000000100000000000100000000000000000100000,
100000000000100000000000000000000000100000000000,
100000000000100000000000100000000000300000000000,
100000000000100000000000100000000000300000000000,
#GOGOEND
000000000000000000000000000000000000000000000000,
100000000000000000000000100000000000000000000000,
100000000000000000000000100000000000000000000000,
000000200000200000000000200000200000000000000000,
500000000000000000000000000000000000000008000000,
100000000000100000000000100000000000000000000000,
100000000000100000000000100000000000000000000000,
100000000000100000000000100000100000000000100000,
500000000000000000000000000000000008000000000000,
100000100000000000000000100000100000100000000000,
100000000000100000000000100000100000100000000000,
100000000000100000000000100000100000100000000000,
100000000000100000000000100000000000300000000000,
100000100000100000000000100000100000100000000000,
100000000000100000000000200000000000200000000000,
300000000000300000000000400000000000400000000000,
700000000000000000000000000000000000000000800000,
200000000000000000200000000000000000200000000000,
000000200000000000000000200000000000200000000000,
100000000000000000100000000000000000100000000000,
000000100000000000000000100000000000100000000000,
100000000000100000000000200000000000200000000000,
100000000000100000000000100000100000100000000000,
9,
8,
#GOGOSTART
100000000000100000000000100000000000000000100000,
100000000000100000000000000000000000200000000000,
100000000000100000000000200000000000200000000000,
100000100000100000000000300000000000300000000000,
100000000000100000000000100000000000000000100000,
100000000000100000000000000000000000100000000000,
100000000000100000000000100000100000000000000000,
700000000000000000000000000000000000800000000000,
100000000000100000000000100000000000000000100000,
100000000000100000000000000000000000200000000000,
100000000000100000000000200000000000300000000000,
100000000000100000000000200000000000300000000000,
100000000000100000000000100000000000000000100000,
100000000000100000000000000000000000200000000000,
100000000000100000000000200000000000300000000000,
100000000000100000000000200000000000300000000000,
#GOGOEND
#END

COURSE:Easy
LEVEL:2
BALLOON:25,5,5,8,13
SCOREDIFF:0
#START
9,
,
,
8,
#GOGOSTART
100000000000000000000000100000000000000000000000,
100000000000100000000000000000000000100000000000,
100000000000100000000000000000000000100000000000,
100000000000000000000000300000000000300000000000,
100000000000000000000000100000000000000000000000,
100000000000100000000000000000000000100000000000,
100000000000100000000000100000000000000000000000,
200000000000200000000000200000000000000000000000,
#GOGOEND
000000000000000000000000000000000000000000000000,
100000000000000000000000100000000000000000000000,
100000000000000000000000000000000000000000000000,
500000000000000000000000000000000000000000000000,
000000000000000000000000000008000000000000000000,
100000000000000000000000100000000000000000000000,
100000000000000000000000000000000000000000000000,
700000000000000000000000000000000000800000000000,
500000000000000000000000000008000000000000000000,
100000000000000000000000100000000000000000000000,
100000000000000000000000100000000000100000000000,
100000000000000000000000100000000000000000000000,
100000000000000000000000100000000000300000000000,
100000000000000000000000200000000000000000000000,
100000000000000000000000200000000000000000000000,
300000000000300000000000300000000000300000000000,
700000000000000000000000000000000000800000000000,
200000000000000000000000000000000000200000000000,
000000000000000000000000200000000000000000000000,
200000000000000000000000000000000000200000000000,
000000000000000000000000200000000000000000000000,
100000000000000000000000100000000000000000000000,
100000000000000000000000100000000000000000000000,
9,
8,
#GOGOSTART
100000000000100000000000100000000000000000000000,
100000000000100000000000000000000000100000000000,
100000000000100000000000000000000000100000000000,
100000000000000000000000300000000000300000000000,
100000000000100000000000100000000000000000000000,
200000000000200000000000000000000000100000000000,
700000000000000000000000000000000000000000000000,
000000000000000000000000000000000000800000000000,
100000000000100000000000100000000000000000000000,
100000000000100000000000000000000000100000000000,
100000000000100000000000000000000000300000000000,
100000000000100000000000000000000000300000000000,
100000000000100000000000100000000000000000000000,
200000000000200000000000000000000000100000000000,
100000000000100000000000000000000000300000000000,
100000000000100000000000000000000000300000000000,
#GOGOEND
#END
