//TJADB Project
TITLE:Neko Kujira -Old Chart-
TITLEJA:ねこくじら
SUBTITLE:--Yuuji Masubuchi feat. Mika Sato
SUBTITLEJA:旧譜面
BPM:140
WAVE:Neko Kujira.ogg
OFFSET:-5.183
DEMOSTART:80.608

COURSE:Oni
LEVEL:6
BALLOON:12,15
SCOREINIT:
SCOREDIFF:
SCOREMODE:0
#START
100110201010,
100110202010,
111000,
111100,
#BPMCHANGE 139.23
111100111100,
#BPMCHANGE 140
111100222200,
111100111100,
111100400000,//8
101100000100,
#BPMCHANGE 140.6
2101,
#BPMCHANGE 139.6
101100000101,
#BPMCHANGE 140.49
2111,
#BPMCHANGE 140
100101200100,
101200100000,
110101200100,
3,//16
101100000101,
200100000101,
101100000101,
2111,
#BPMCHANGE 139.79
100101200100,
#BPMCHANGE 139.54
1210,
#BPMCHANGE 140.67
110100100100,
#BPMCHANGE 140.65
111100100000,//24
#BPMCHANGE 140
111100111100,
#BPMCHANGE 139.99
111100111100,
#BPMCHANGE 140
111100111100,
111120000001,
#BPMCHANGE 139.37
111100111100,
#BPMCHANGE 139.88
111100101110,
#BPMCHANGE 140
100110201010,
102001102010,//32
#BPMCHANGE 140.13
1,
#BPMCHANGE 140
110100100100,
100010102210,
1111,
100110201010,
100110201010,
100110201010,
200100111100,//40
100101200001,
100101200000,
100101200000,
#BPMCHANGE 139.67
101022022100,
#BPMCHANGE 140.34
100101200001,
#BPMCHANGE 139.42
100100101010,
#BPMCHANGE 140.82
111,
#BPMCHANGE 140
500000000000000000000000000000000008000000000000,//48
101110201110,
101110102220,
101110201110,
101110101220,
101001102010,
120100,
100101102010,
300000000000000000000000500000000000080000000000,//56
101110201110,
101110102220,
101110201110,
101110101020,
101001102010,
101001102010,
101001102010,
1111,//64
100101102010,
100101102010,
100101102010,
#BPMCHANGE 139.41
100130,
#BPMCHANGE 140.6
100111200100,
#BPMCHANGE 139.71
1212,
#BPMCHANGE 140
1113,//71
101110201110,
101110122111,
111222,
#BPMCHANGE 138.7
111100,
#BPMCHANGE 140
,
,
,
,
#END

COURSE:Hard
LEVEL:6
BALLOON:
SCOREINIT:650
SCOREDIFF:140
SCOREMODE:1
#START
100110201010,
100110202010,
111000,
111100,
#BPMCHANGE 139.23
111100111100,
#BPMCHANGE 140
111100222200,
111100111100,
111100400000,//8
101100000100,
#BPMCHANGE 140.6
2101,
#BPMCHANGE 139.6
101100000101,
#BPMCHANGE 140.49
2111,
#BPMCHANGE 140
100101200100,
101200100000,
110101200100,
3,//16
101100000101,
200100000101,
101100000101,
2111,
#BPMCHANGE 139.79
100101200100,
#BPMCHANGE 139.54
1210,
#BPMCHANGE 140.67
110100100100,
#BPMCHANGE 140.65
111100100000,//24
#BPMCHANGE 140
111100111100,
#BPMCHANGE 139.99
111100111100,
#BPMCHANGE 140
111100111100,
111120000001,
#BPMCHANGE 139.37
111100111100,
#BPMCHANGE 139.88
111100101110,
#BPMCHANGE 140
100110201010,
102001102010,//32
#BPMCHANGE 140.13
1,
#BPMCHANGE 140
110100100100,
100010102210,
1111,
100110201010,
100110201010,
100110201010,
200100111100,//40
100101200001,
100101200000,
100101200000,
#BPMCHANGE 139.67
101022022100,
#BPMCHANGE 140.34
100101200001,
#BPMCHANGE 139.42
100100101010,
#BPMCHANGE 140.82
111,
#BPMCHANGE 140
500000000000000000000000000000000008000000000000,//48
101110201110,
101110102220,
101110201110,
101110101220,
101001102010,
120100,
100101102010,
300000000000000000000000500000000000080000000000,//56
101110201110,
101110102220,
101110201110,
101110101020,
101001102010,
101001102010,
101001102010,
1111,//64
100101102010,
100101102010,
100101102010,
#BPMCHANGE 139.41
100130,
#BPMCHANGE 140.6
100111200100,
#BPMCHANGE 139.71
1212,
#BPMCHANGE 140
1113,//71
101110201110,
101110122111,
111222,
#BPMCHANGE 138.7
111100,
#BPMCHANGE 140
,
,
,
,
#END

COURSE:Normal
LEVEL:5
BALLOON:
SCOREINIT:720
SCOREDIFF:180
SCOREMODE:1
#START
101200,
101200,
111000,
111100,
#BPMCHANGE 139.23
1111,
#BPMCHANGE 140
100100111100,
1111,
111100100000,//8
101100000100,
#BPMCHANGE 140.6
1100,
#BPMCHANGE 139.6
101100000100,
#BPMCHANGE 140.49
1111,
#BPMCHANGE 140
1212,
1110,
1212,
3,//16
101100000200,
1200,
101100000200,
1111,
#BPMCHANGE 139.79
1212,
#BPMCHANGE 139.54
1110,
#BPMCHANGE 140.67
0101,
#BPMCHANGE 140.65
1130,//24
#BPMCHANGE 140
1110,
#BPMCHANGE 139.99
100100111100,
#BPMCHANGE 140
1110,
100100222200,
#BPMCHANGE 139.37
1110,
#BPMCHANGE 139.88
100100101010,
#BPMCHANGE 140
101200,
101220,
#BPMCHANGE 140.13
1,
#BPMCHANGE 140
1111,
1,
1111,//36
101200,
101200,
121,
2111,
100000200001,
1120,
12,
#BPMCHANGE 139.67
110110,
#BPMCHANGE 140.34
100000200001,
#BPMCHANGE 139.42
100100101010,
#BPMCHANGE 140.82
111,
#BPMCHANGE 140
500000000000000000000000000000000008000000000000,//48
101110100000,
101110200000,
101110100000,
101110201000,
110200,
110200,
1,
1111,//56
101110101000,
101110202000,
101110101000,
101110202000,
110220,
110220,
110220,
1111,//64
110220,
110211,
110220,
#BPMCHANGE 139.41
500000000000000800000000100000003000000000000000,
#BPMCHANGE 140.6
1121,
#BPMCHANGE 139.71
1212,
#BPMCHANGE 140
1113,//71
101200,
101200,
111000,
#BPMCHANGE 138.7
111100,
#BPMCHANGE 140
,
,
,
,//79
#END
