//TJADB Project
TITLE:SORA-V Cosmic Bird
TITLEJA:SORA-V コズミックバード
SUBTITLE:--Tori-Oto
SUBTITLEJA:
BPM:135
WAVE:SORA-V Cosmic Bird.ogg
OFFSET:-1.978
DEMOSTART:9.087

COURSE:Oni
LEVEL:8
BALLOON:4,6,8,48,4,6,8,64
SCOREINIT:890
SCOREDIFF:228
#START
1,
1,
30101111,
,
100002200100100002200100,
100002200100100002200200,
100002200100100002200100,
100002200100100002200200,
100002200100100002200100,
100002200100100200000000,
100002200100100002200100,
30030030,
100002200100100002200100,
3003007000008000,
3003007000008000,
3003007000008000,
300030003000101010100100,
100002200100100002200200,
100002200100102002200200,
100002200100100002200200,
100002200100102002200200,
100002200100100002200200,
100002200100102002200200,
100002200100100002200100,
22112210,
100002200100102001100200,
100002200100102002200200,
100002200100102001100100,
100002200100102002200700,
,
,
,
00000800,
3,
00000001,
1,
00000001,
1002002020000010,
1002002010000010,
1002002002020010,
1012011020020010,
100000101101101101101101,
100001000700000000800000,
100001000700000000800000,
100001000700000000800000,
300030003000202020200200,
#GOGOSTART
101002200100101002200200,
101002200100102002200100,
101002200100101002200200,
101002200100102002200202,
101002200100101002200200,
101002200100102002200300,
000102200100101002200200,
11221120,
101002200100201002100100,
101002200100201002100200,
101002200100201002100100,
12020207,
,
,
,
00000008,
#GOGOEND
#END

COURSE:Hard
LEVEL:6
BALLOON:16
SCOREINIT:860
SCOREDIFF:260
#START
1,
1,
3,
,
1002000000101000,
2202000000101000,
1002000000101000,
2202000000101000,
1002000010202020,
1001001040400000,
1001002010010020,
30030030,
1001002020020020,
3003003000000000,
3003003000000000,
3003003000000000,
400000222200,
3000200100102000,
1000200100102010,
1000200100102020,
1000200100202011,
1000200100102000,
1000200100101050,
000000000000000000000008000000000000100000100000,
2010201022202220,
1001001000111000,
2002002000222000,
1001001000111000,
1001001020020040,
0,
500000000000000000000000000008000000000000400000,
0022,
10200220,
00000002,
20000002,
20000002,
20002021,
10002001,
10002001,
10002001,
1000100010010010,
500000000000000000000000000000000008000000000000,
3003003000002020,
3003003000002020,
3003003000002220,
400000222200,
#GOGOSTART
1000200101102000,
1000200101102010,
1000200101102000,
1000200101102011,
1000200101102000,
10201115,
000000000000000000000008000000000000200000000000,
1010202011102011,
1001101101101000,
2002202202202000,
1001101102202000,
11010115,
000000000000000000000000000008000000000000300000,
500000000000000000000000000008000000000000300000,
600000000000000000000000000008000000000000300000,
9,
#BPMCHANGE 136.331
#GOGOEND
8,
,
,
,
,
#END

COURSE:1
LEVEL:4
BALLOON:8,8,10
SCOREINIT:1070
SCOREDIFF:423
#START
1,
1,
3,
0,
1001,
1002,
1001,
1002,
11,
10022000,
10011010,
10010010,
20022020,
30030000,
40040000,
30030000,
333000,
3002,
1210,
1002,
10201011,
1002,
10001005,
000000000000000000000008000000000000000000000000,
10002220,
10001110,
10002220,
20001110,
30003004,
0,
500000000000000000000008000000000000000000300000,
0,
600000000000000000000008000000000000000000000000,
1001,
10000001,
1001,
10000001,
10002001,
10002001,
10002001,
1111,
7008,
30030000,
40040000,
30030000,
333000,
#GOGOSTART
3012,
10201011,
1012,
10201011,
1012,
10101005,
000000000000000000000008000000000000000000000000,
10002220,
10001110,
10002220,
20001110,
500000000000000000000008000000000000000000700000,
00000805,
000000000000000000000000000008000000000000600000,
000000000000000000000000000000000008000000000000,
9,
#BPMCHANGE 136.331
#GOGOEND
8,
,
,
,
,
#END

COURSE:0
LEVEL:3
BALLOON:8,8,4,4,6
SCOREINIT:850
SCOREDIFF:395
#START
1,
1,
3,
0,
1001,
1002,
1001,
1002,
11,
12,
1011,
1001,
2022,
3003,
4004,
3003,
4,
3001,
1110,
2002,
2220,
1002,
10101005,
000000000000000000000008000000000000000000000000,
1022,
1011,
1022,
2011,
30003007,
0,
80000007,
0,
8,
1001,
1,
1001,
1,
12,
12,
12,
1111,
7008,
3003,
4004,
3003,
4,
#GOGOSTART
3001,
1110,
2002,
2220,
1002,
10101005,
000000000000000000000008000000000000000000000000,
1022,
1011,
1022,
2011,
500000000000000000000000000008000000000000700000,
00000085,
000000000000000000000000000008000000000000600000,
000000000000000000000000000000000008000000000000,
9,
#BPMCHANGE 136.331
#GOGOEND
8,
,
,
,
,
#END
