//TJADB Project
TITLE:Libera Ray
SUBTITLE:--steμ feat. siroa/Synchronica
SUBTITLEJA:--steμ feat. siroa 「シンクロニカ」より
BPM:116
WAVE:Libera Ray.ogg
OFFSET:-0.745
DEMOSTART:15.209

COURSE:Oni
LEVEL:10
BALLOON:50,5,50
SCOREINIT:1140
SCOREDIFF:0
#START
500000000000000000000000000000000008000000000000,
10020020,
1000221000002000,
10021020,
10021002,
7,
#MEASURE 6/4
0000
#BPMCHANGE 232
00000008,
#MEASURE 4/4
10211201,
2010102012101010,
10211201,
2010102022101011,
10211212,
2011101022101010,
11121221,
2011211121112110,
30211211,
2011102012101010,
30211211,
200200100000100000200000200020001000200000000000,
222111222111,
111222111200,
211211211211,
111222111222,
303030300303,
030300300111,
121212120121,
201020102000100700000000,
80212012,
11211121,
10212011,
11211121,
10212012,
12211121,
10212111,
11212121,
122112200122,
101020200100100200100000,
10212012,
11211121,
10212030,
1110201010102010,
122112200122,
101020200000100100200200,
11212250,
000000000000000008000000200000000000200000000000,
12212212,
2022102010201000,
1020201020201022,
22121212,
12212212,
1020102010221000,
1011102022201000,
1020102010222020,
11211211,
2022202011102000,
11211211,
2010201021102000,
500000000000000000000000000000000000000008000000,
0112,
10211121,
11211020,
500000000000000000000000000000000000000008000000,
000221221221,
211211211211,
1020102011222000,
500000000000000000000000000000000000000008000000,
0112,
10211121,
1020101011111111,
5,
000000000008000000000000100100100000200000000000,
111200111200,
111333,
#GOGOSTART
10301230,
1030002030001110,
30130230,
1110300010300020,
3000111030001030,
02301301,
3000201110102010,
1110112010101010,
#GOGOEND
5,
000000000000000000000000000000000000000008000000,
10202202,
21222212,
10201201,
22112211,
10120220,
1022122212221220,
10221202,
12221222,
10221202,
100200200200102020200000,
221221221221,
211211211122,
303030300303,
030300303030,
111222100111,
222111221122,
#GOGOSTART
3002,
02,
30002220,
0000000022220000,
3000222020002000,
0220,
300022202020
#GOGOEND
2110,
11211120,
#GOGOSTART
111221200221,
112200120110,
111221200211,
112200210110,
1010201011112222,
100010001000200020002000100100100000100000100000,
1010201011112222,
1122112211222020,
303030300303,
030300300400,
#GOGOEND
121212100121,
200010002000100000000000100100200100100200100100,
2112112112112112,
#MEASURE 8/4
7,
#MEASURE 1/8
#BARLINEOFF
,
#SCROLL 0.88
#BARLINEON
,
#SCROLL 0.8
,
#SCROLL 0.72
,
#SCROLL 0.66
,
#SCROLL 0.61
,
#SCROLL 0.57
,
#SCROLL 0.53
,
#MEASURE 1/16
#SCROLL 0.5
,
#SCROLL 0.56
,
#SCROLL 0.63
,
#SCROLL 0.72
,
#SCROLL 0.81
,
#SCROLL 0.91
,
#SCROLL 1.02
,
#SCROLL 1.15
,
#SCROLL 1.3
,
#SCROLL 1.46
,
#SCROLL 1.65
,
#SCROLL 1.86
,
#SCROLL 2.1
,
#SCROLL 2.36
,
#SCROLL 2.66
,
#SCROLL 3
,
#MEASURE 4/4
#SCROLL 3.38
8,
#END

COURSE:Hard
LEVEL:7
BALLOON:14,18,9,32
SCOREINIT:2270
SCOREDIFF:0
#START
500000000000000000000000000000000008000000000000,
10020020,
10210020,
10021020,
10021002,
9,
#MEASURE 6/4
80
#BPMCHANGE 232
0000,
#MEASURE 4/4
10201101,
1122,
10201101,
1122,
10201101,
1122,
10110110,
2222,
30201101,
1122,
30201101,
1122,
111100100100,
111100100200,
111100200200,
111100222200,
303030300303,
030300300100,
7,
,
8,
0022,
10010010,
0212,
10010010,
0212,
10010010,
0222,
111100200111,
1122,
10010010,
0212,
10010030,
0212,
111100100111,
1112,
11221120,
0222,
11122210,
0121,
11122210,
0212,
11122210,
0112,
11122210,
11211020,
10210120,
10102220,
20210120,
10202220,
5,
000000000000000000000000000008000000000000000000,
10210120,
1112,
5,
000000000000000000000000000008000000000000000000,
20210120,
20202220,
5,
000000000000000000000000000008000000000000000000,
10210120,
10101110,
500000000000000000000000000008000000000000000000,
10101110,
111100111100,
111333,
#GOGOSTART
0303,
03003000,
30030030,
00300300,
30003003,
00300300,
3121,
22201010,
#GOGOEND
5,
000000000000000000000000000008000000000000000000,
12,
2220,
12,
2222,
10020020,
10201110,
1210,
1212,
1210,
1212,
1111,
1111,
303030300303,
030300303030,
111100100900,
,
#GOGOSTART
8,
,
4,
,
4002,
02,
400
#GOGOEND
2,
2,
#GOGOSTART
111100100100,
222200200200,
111100100100,
222200200200,
10211020,
222200200200,
10211010,
11111110,
303030300303,
030300300400,
#GOGOEND
101010100101,
010100500000,
000000000000000000000000000000000000000008000000,
#MEASURE 8/4
7,
#MEASURE 1/8
#BARLINEOFF
,
#SCROLL 0.88
#BARLINEON
,
#SCROLL 0.8
,
#SCROLL 0.72
,
#SCROLL 0.66
,
#SCROLL 0.61
,
#SCROLL 0.57
,
#SCROLL 0.53
,
#MEASURE 1/16
#SCROLL 0.5
,
#SCROLL 0.56
,
#SCROLL 0.63
,
#SCROLL 0.72
,
#SCROLL 0.81
,
#SCROLL 0.91
,
#SCROLL 1.02
,
#SCROLL 1.15
,
#SCROLL 1.3
,
#SCROLL 1.46
,
#SCROLL 1.65
,
#SCROLL 1.86
,
#SCROLL 2.1
,
#SCROLL 2.36
,
#SCROLL 2.66
,
#SCROLL 3
,
#MEASURE 4/4
#SCROLL 3.38
8,
#END

COURSE:Normal
LEVEL:5
BALLOON:11,13,7,25
SCOREINIT:4210
SCOREDIFF:0
#START
500000000000000000000000000000000008000000000000,
10020020,
10020020,
10021020,
12,
9,
#MEASURE 6/4
80
#BPMCHANGE 232
0000,
#MEASURE 4/4
11,
1120,
11,
1120,
11,
1122,
10010010,
2220,
31,
1110,
31,
1110,
1111,
1110,
1122,
1120,
3033,
0330,
7,
,
8,
02,
1001,
0110,
1001,
0110,
1001,
0220,
2001,
02,
1001,
0110,
1003,
0110,
1001,
01,
2022,
0220,
10020010,
0112,
10020010,
0221,
10020010,
0221,
20020010,
0222,
10010010,
0121,
20010020,
0221,
5,
000000000000000000000000000008000000000000000000,
10010010,
11,
5,
000000000000000000000000000008000000000000000000,
20020020,
2220,
5,
000000000000000000000000000008000000000000000000,
10010010,
1110,
500000000000000000000000000008000000000000000000,
1110,
1212,
500000000000000000000000000000000000000008000000,
#GOGOSTART
0301,
01,
3001,
01,
3001,
01,
3,
2,
#GOGOEND
5,
000000000000000000000000000008000000000000000000,
1,
2,
1,
2,
10020020,
21,
11,
11,
11,
11,
1111,
1111,
3033,
0330,
1019,
,
#GOGOSTART
8,
,
4,
,
4002,
02,
400
#GOGOEND
2,
2,
#GOGOSTART
1110,
22,
1110,
22,
20020020,
22,
1011,
12,
3033,
0330,
#GOGOEND
1011,
0150,
000000000000000000000000000000000000000008000000,
#MEASURE 8/4
7,
#MEASURE 1/8
#BARLINEOFF
,
#SCROLL 0.88
#BARLINEON
,
#SCROLL 0.8
,
#SCROLL 0.72
,
#SCROLL 0.66
,
#SCROLL 0.61
,
#SCROLL 0.57
,
#SCROLL 0.53
,
#MEASURE 1/16
#SCROLL 0.5
,
#SCROLL 0.56
,
#SCROLL 0.63
,
#SCROLL 0.72
,
#SCROLL 0.81
,
#SCROLL 0.91
,
#SCROLL 1.02
,
#SCROLL 1.15
,
#SCROLL 1.3
,
#SCROLL 1.46
,
#SCROLL 1.65
,
#SCROLL 1.86
,
#SCROLL 2.1
,
#SCROLL 2.36
,
#SCROLL 2.66
,
#SCROLL 3
,
#MEASURE 4/4
#SCROLL 3.38
8,
#END

COURSE:Easy
LEVEL:4
BALLOON:9,11,6,22
SCOREINIT:6960
SCOREDIFF:0
#START
500000000000000000000000000008000000000000000000,
10010000,
10010000,
22,
22,
9,
#MEASURE 6/4
80
#BPMCHANGE 232
0000,
#MEASURE 4/4
1,
11,
1,
11,
1,
11,
11,
22,
3,
11,
3,
11,
1110,
1110,
1111,
1111,
3003,
03,
7,
,
8,
,
1001,
,
1001,
,
1001,
,
2002,
,
1001,
,
1003,
,
1001,
01,
2002,
,
10010010,
01,
10010010,
01,
10010010,
01,
20020020,
02,
1001,
01,
2002,
02,
5,
000000000000000000000000000008000000000000000000,
1,
11,
5,
000000000000000000000000000008000000000000000000,
2,
22,
5,
000000000000000000000000000008000000000000000000,
1,
11,
500000000000000000000000000008000000000000000000,
11,
1110,
500000000000000000000000000000000000000008000000,
#GOGOSTART
0301,
,
3001,
,
3001,
,
3,
2,
#GOGOEND
5,
000000000000000000000000000008000000000000000000,
,
2,
,
2,
,
2,
1,
1,
1,
1,
11,
11,
3003,
03,
1009,
,
#GOGOSTART
8,
,
4,
,
4,
,
400
#GOGOEND
0,
,
#GOGOSTART
11,
1,
11,
1,
22,
22,
11,
11,
3003,
03,
#GOGOEND
1001,
05,
000000000000000000000000000000000000000008000000,
#MEASURE 8/4
7,
#MEASURE 1/8
#BARLINEOFF
,
#SCROLL 0.88
#BARLINEON
,
#SCROLL 0.8
,
#SCROLL 0.72
,
#SCROLL 0.66
,
#SCROLL 0.61
,
#SCROLL 0.57
,
#SCROLL 0.53
,
#MEASURE 1/16
#SCROLL 0.5
,
#SCROLL 0.56
,
#SCROLL 0.63
,
#SCROLL 0.72
,
#SCROLL 0.81
,
#SCROLL 0.91
,
#SCROLL 1.02
,
#SCROLL 1.15
,
#SCROLL 1.3
,
#SCROLL 1.46
,
#SCROLL 1.65
,
#SCROLL 1.86
,
#SCROLL 2.1
,
#SCROLL 2.36
,
#SCROLL 2.66
,
#SCROLL 3
,
#MEASURE 4/4
#SCROLL 3.38
8,
#END
